Today is a free download without charge Download

Черные волки / Серии: 8 из 8 (Дмитрий Константинов) [2011, Россия, драма, криминал, DVD9] R5 «Парадиз Видео»

Reply to topic
 
Author
Message

voovaz ®

Gender:

Longevity: 7 years 6 months

Posts: 87

Торрент-статистика

Post 09-Nov-2011 14:07

[Quote]

-Черные волки-«Найти и обезвредить» -Страна: Россия
Студия: Централ Партнершип
Жанр: драма, криминал
Год выпуска: 2011
Российская премьера: 17 октября 2011
Дата выхода DVD: 8 ноября 2011, «Парадиз Видео»
Продолжительность: 8 х 00:49:10
Перевод: Оригинал [Лицензия]
Cубтитры: нет
Оригинальная аудиодорожка: русский-Режиссер: Дмитрий Константинов-В ролях: Сергей Безруков, Александр Коршунов, Дарья Мороз, Владимир Юматов, Владимир Капустин, Александр Голубев, Алёна Хмельницкая, Дмитрий Мухамадеев, Анатолий Кот, Кристина Бабушкина-Описание: Действие фильма происходит в Ярославле в пятидесятых годах прошлого века. Главный герой, бывший следователь УГРО Павел Хромов, был осужден на восемь лет за преступление, которого не совершал. Освободившись, Павел узнает, что его сестру убили «Черные волки», — так провинциальные жители назвали организованную группировку, которая держит в страхе весь город. На месте преступления, как черную метку, бандиты оставляют волчью голову. Хромову предстоит найти и обезвредить банду и вернуть себе честное имя капитана милиции.
-Бонусы: нет- -Качество: 2xDVD9 R5
Формат: DVD-Video
Видео кодек: MPEG2
Аудио кодек: AC3
Видео: PAL 16:9 (720x576(0.472)) MPEG Video, 25,000 кадр/сек, 4891 Кбит/сек
Аудио: Russian (Dolby AC3, 6 ch) 448 Кбит/сек, 48,0 КГц-
-

DVDInfo DVD 1

Title: Рабочий
Size: 7.64 Gb ( 8 011 044 KBytes ) - DVD-9
Enabled regions: 1, 2, 3, 4, 5, 6, 7, 8
VTS_01 :
Play Length: 00:00:05
Video: PAL 4:3 (720x576) VBR
VTS_02 :
Play Length: 00:00:07
Video: PAL 16:9 (720x576) VBR, Auto Letterboxed
Audio:
Not specified (Dolby AC3, 2 ch)
VTS_03 :
Play Length: 00:00:09
Video: PAL 16:9 (720x576) VBR, Auto Letterboxed
Audio:
Not specified (Dolby AC3, 2 ch)
VTS_04 :
Play Length: 00:49:10
Video: PAL 16:9 (720x576) VBR, Auto Letterboxed
Audio:
Russian (Dolby AC3, 6 ch)
VTS_05 :
Play Length: 00:51:00
Video: PAL 16:9 (720x576) VBR, Auto Letterboxed
Audio:
Russian (Dolby AC3, 6 ch)
VTS_06 :
Play Length: 00:49:20
Video: PAL 16:9 (720x576) VBR, Auto Letterboxed
Audio:
Russian (Dolby AC3, 6 ch)
VTS_07 :
Play Length: 00:49:05
Video: PAL 16:9 (720x576) VBR, Auto Letterboxed
Audio:
Russian (Dolby AC3, 6 ch)

DVDInfo DVD 2

Title: Рабочий
Size: 7.56 Gb ( 7 925 454 KBytes ) - DVD-9
Enabled regions: 1, 2, 3, 4, 5, 6, 7, 8
VTS_01 :
Play Length: 00:00:05
Video: PAL 4:3 (720x576) VBR
VTS_02 :
Play Length: 00:00:07
Video: PAL 16:9 (720x576) VBR, Auto Letterboxed
Audio:
Not specified (Dolby AC3, 2 ch)
VTS_03 :
Play Length: 00:00:09
Video: PAL 16:9 (720x576) VBR, Auto Letterboxed
Audio:
Not specified (Dolby AC3, 2 ch)
VTS_04 :
Play Length: 00:49:00
Video: PAL 16:9 (720x576) VBR, Auto Letterboxed
Audio:
Russian (Dolby AC3, 6 ch)
VTS_05 :
Play Length: 00:49:08
Video: PAL 16:9 (720x576) VBR, Auto Letterboxed
Audio:
Russian (Dolby AC3, 6 ch)
VTS_06 :
Play Length: 00:49:15
Video: PAL 16:9 (720x576) VBR, Auto Letterboxed
Audio:
Russian (Dolby AC3, 6 ch)
VTS_07 :
Play Length: 00:48:53
Video: PAL 16:9 (720x576) VBR, Auto Letterboxed
Audio:
Russian (Dolby AC3, 6 ch)

MediaInfo

Общее
Полное имя : G:\Новинки 2011\Chernye.volki.2011.O.2xDVD9\D1\VIDEO_TS\VTS_05_1.VOB
Формат : MPEG-PS
Размер файла : 1024 Мбайт
Продолжительность : 26 м.
Общий поток : 5447 Кбит/сек
Видео
Идентификатор : 224 (0xE0)
Формат : MPEG Video
Версия формата : Version 2
Профиль формата : Main@Main
Параметр BVOP формата : Да
Параметр матрицы формата : Выборочная
Продолжительность : 26 м.
Вид битрейта : Переменный
Битрейт : 4891 Кбит/сек
Максимальный битрейт : 8000 Кбит/сек
Ширина : 720 пикселей
Высота : 576 пикселей
Соотношение сторон : 16:9
Частота кадров : 25,000 кадров/сек
Стандарт вещания : PAL
Цветовое пространство : YUV
Субдискретизация насыщенности : 4:2:0
Битовая глубина : 8 бит
Тип развёртки : Чересстрочная
Порядок развёртки : Нижнее поле первое
Метод сжатия : С потерями
Бит/(Пиксели*Кадры) : 0.472
Размер потока : 919 Мбайт (90%)
Аудио
Идентификатор : 189 (0xBD)-128 (0x80)
Формат : AC-3
Формат/Информация : Audio Coding 3
Расширение режима : CM (complete main)
Режим смешивания : DVD-Video
Продолжительность : 26 м.
Вид битрейта : Постоянный
Битрейт : 448 Кбит/сек
Каналы : 6 каналов
Расположение каналов : Front: L C R, Side: L R, LFE
Частота : 48,0 КГц
Битовая глубина : 16 бит
Метод сжатия : С потерями
Размер потока : 84,2 Мбайт (8%)

Скриншоты меню

     

Скриншоты сериала

               
-
-
-
-


Last edited by voovaz on 2011-11-09 14:23; edited 2 times in total
Other forum [Profile] [PM]
Display posts from previous:    
Reply to topic

The time now is: Today 07:05

All times are GMT + 3 Hours



You cannot post new topics in this forum
You cannot reply to topics in this forum
You cannot edit your posts in this forum
You cannot delete your posts in this forum
You cannot vote in polls in this forum
You cannot attach files in this forum
You cannot download files in this forum