Сегодня идет свободное скачивание без начисления Download

Малкольм в центре внимания / Malcolm in the Middle (2005 - 2006) IPTVRip [Сезон 7, серии 1-22 из 22] (Paramount)

Ответить на тему
 
Автор
Сообщение

UndegraundMen ®

Стаж: 5 лет 8 месяцев

Сообщений: 25860

Торрент-статистика

Пост 28-Ноя-2013 11:02

[Цитировать]

Малкольм в центре внимания / Malcolm in the Middle (2005 - 2006) IPTVRip [Сезон 7, серии 1-22 из 22] (Paramount)- Год выпуска: 2005 - 2006
Жанр: Комедия, Семейный
Перевод: Дублированный (Paramount comedy)

Дата мировой премьеры: 09.01.2000
Режиссер: Тодд Холлэнд, Джеффри Мэлман, Кен Куопис, Линвуд Бумер
Актеры: Френки Муниз, Джейн Качмарек, Брайен Кренстон, Джастин Берфилд, Эрик Пэр Саливан и другие
Описание фильма:
Встречайте веселую и немного сумасшедшую семейку: мама-тиран, папа-простофиля и четверо детей-разгильдяев. В этом доме постоянно происходят самые невероятные и забавные вещи: ссоры, игры, драки, взрывоопасные эксперименты с химией, гомерический смех, забавные и веселые игры. Эта атмосфера искрящегося веселья, радости, забав, наивных глупостей и всяческих шалостей каждый день окружает Малкольма, который не понаслышке знает, что такое действительно дружное и веселое семейство.
Продолжительность: ~00:22:00 серия
Качество видео: IPTVRip
Видеокодек: DivX 3
Битрейт видео: ~2017 Кбит/сек
Размер кадра: 704х432
Аудио: MP3, 48.0 KHz, 2 channels, 128 Kbps
Сэмпл: Скачать

MediaInfo

Формат : AVI
Формат/Информация : Audio Video Interleave
Размер файла : 317 Мбайт
Продолжительность : 20 м.
Общий поток : 2158 Кбит/сек
Программа кодирования : Lavf52.39.1
Библиотека кодирования : VirtualDub build 35376/release
Видео
Идентификатор : 0
Формат : xvid
Идентификатор кодека : xvid
Продолжительность : 20 м.
Битрейт : 2017 Кбит/сек
Ширина : 704 пикселя
Высота : 432 пикселя
Соотношение сторон : 16:10
Частота кадров : 25,000 кадров/сек
Бит/(Пиксели*Кадры) : 0.265
Размер потока : 297 Мбайт (93%)
Аудио
Идентификатор : 1
Формат : MPEG Audio
Версия формата : Version 1
Профиль формата : Layer 3
Режим : Joint stereo
Расширение режима : MS Stereo
Идентификатор кодека : 55
Идентификатор кодека/Подсказка : MP3
Продолжительность : 20 м.
Вид битрейта : Постоянный
Битрейт : 128 Кбит/сек
Каналы : 2 канала
Частота : 48,0 КГц
Метод сжатия : С потерями
Размер потока : 18,8 Мбайт (6%)
Выравнивание : Соединение по промежуткам
Продолжительность промежутка : 24 мс. (0,60 видеокадр)
Время предзагрузки промежутка : 504 мс.

Дополнительная информация:

Имеет несколько наград Эмми, в том числе, за лучшую режиссуру и сценарий комедийного сериала.
Вне форума [Профиль] [ЛС]
Показать сообщения:    
Ответить на тему

Текущее время: Сегодня 02:06

Часовой пояс: GMT + 3



Вы не можете начинать темы
Вы не можете отвечать на сообщения
Вы не можете редактировать свои сообщения
Вы не можете удалять свои сообщения
Вы не можете голосовать в опросах
Вы не можете прикреплять файлы к сообщениям
Вы не можете скачивать файлы