Сегодня идет свободное скачивание без начисления Download

Хорошая жена / The Good Wife (2013) WEB-DL [720p] (Сезон 5, серии 1-8 из 22) [NewStudio] (обновляемая)

Ответить на тему
 
Автор
Сообщение

UndegraundMen ®

Стаж: 5 лет 4 месяца

Сообщений: 25870

Торрент-статистика

Пост 25-Ноя-2013 21:10

[Цитировать]

Хорошая жена / The Good Wife (2013) WEB-DL [720p] (Сезон 5, серии 1-8 из 22) [NewStudio] (обновляемая)- Год выпуска: 2013
Жанр: Драма
Страна: США | CBS
Перевод: Профессиональный (многоголосый закадровый) NewStudio
Субтитры: Отсутствуют- -Режиссер: Мишель Кинг, Роберт Кинг
Актеры: Джулианна Маргулис (Alicia Florrick), Мэтт Зукри (Cary Agos), Арчи Панджаби (Kalinda Sharma), Грэхэм Филлипс (Zach Florrick), Макензи Вега (Grace Florrick), Джош Чарльз (Will Gardner), Кристин Барански (Diane Lockhart), Алан Камминг (Eli Gold), Крис Нот (Peter Florrick), Мэри Бет Пейл (Jackie Florrick), Зэк Гренье (David Lee), Титус Уэлливер (Glenn Childs)-Описание фильма:
Благополучное существование Алисии Флоррик, счастливой жены и матери двух детей, было разрушено, когда её муж, чикагский прокурор Питер Флоррик, оказался в центре секс-скандала. Осуждённый за коррупцию Питер отправился в тюрьму, а на плечи Алисии легла забота о семье.
Пришлось вспомнить свои навыки адвоката. Старый друг взял Алисию к себе в фирму - младшим сотрудником, наравне с свежими выпускниками юридического колледжа, и теперь Алисия должна построить свою карьеру практически с нуля, не переставая заботиться о семье и продолжая испытывать негативные последствия скандала вокруг мужа.
В сериале смешаны семейная и юридическая драмы примерно в равных пропорциях. В каждой серии рассказывается история про дело, которое ведёт фирма "Стерн, Локхарт и Гарднер", куда Алисия устроилась на работу. И в каждой серии показывается жизнь её семьи, а заодно разворачивается сквозной детективный сюжет вокруг Питера - ведь его подставили под обвинение в коррупции не просто так.
Вновь обретённая работа, любовь к детям, сложные отношения с мужем, взаимодействие с коллегами - вот из чего состоит жизнь этой женщины, на первый взгляд беззащитной и мягкой, но в реальности очень сильной и упорной.

Дополнительная информация:

Номинации (72) и победы (16), включая престижные Emmy, Golden Globe, SAG.
Продолжительность: ~00:44:00 серия
Качество видео: WEB-DL 720p
Сэмпл: Скачать
Видеокодек: MPEG-4 AVC/H.264
Битрейт видео: ~3930 Kbps
Размер кадра: 1280x720 (16:9)
Аудио кодек: AC3
Видео: 1280x720 (16:9), 23.976 fps, 3 930 Kbps (0.178 bit/pixel)
Аудио #1: Русский 48.0 KHz, , 6 channels, CBR 384 Kbps — многоголосый закадровый
Аудио #2: Английский 48.0 KHz, , 6 channels, CBR 384 Kbps — оригинал

MI

General
Unique ID : 187561835199016013714263277579989736917 (0x8D1B187199A417F892FCF088BBA4DDD5)
Complete name : F:\video\series\The Good Wife\The Good Wife 5 720p NewStudio\The.Good.Wife.s05e01.WEBDL.720p.NewStudio.TV.mkv
Format : Matroska
Format version : Version 2
File size : 1.47 GiB
Duration : 43mn 53s
Overall bit rate : 4 794 Kbps
Encoded date : UTC 2013-09-30 18:49:05
Writing application : mkvmerge v2.9.9 ('Tutu') built on Nov 25 2009 21:13:32
Writing library : libebml v0.7.9 + libmatroska v0.8.1
Video
ID : 1
Format : AVC
Format/Info : Advanced Video Codec
Format profile : [url=mailto:High@L3.1]High@L3.1[/url]
Format settings, CABAC : No
Format settings, ReFrames : 2 frames
Codec ID : V_MPEG4/ISO/AVC
Duration : 43mn 53s
Bit rate : 3 930 Kbps
Width : 1 280 pixels
Height : 720 pixels
Display aspect ratio : 16:9
Frame rate mode : Constant
Frame rate : 23.976 fps
Color space : YUV
Chroma subsampling : 4:2:0
Bit depth : 8 bits
Scan type : Progressive
Bits/(Pixel*Frame) : 0.178
Stream size : 1.21 GiB (82%)
Language : English
Default : No
Forced : No
Color primaries : BT.709
Transfer characteristics : BT.709
Matrix coefficients : BT.709
Audio #1
ID : 2
Format : AC-3
Format/Info : Audio Coding 3
Mode extension : CM (complete main)
Format settings, Endianness : Big
Codec ID : A_AC3
Duration : 43mn 53s
Bit rate mode : Constant
Bit rate : 384 Kbps
Channel(s) : 6 channels
Channel positions : Front: L C R, Side: L R, LFE
Sampling rate : 48.0 KHz
Bit depth : 16 bits
Compression mode : Lossy
Stream size : 121 MiB (8%)
Language : Russian
Default : Yes
Forced : Yes
Audio #2
ID : 3
Format : AC-3
Format/Info : Audio Coding 3
Mode extension : CM (complete main)
Format settings, Endianness : Big
Codec ID : A_AC3
Duration : 43mn 53s
Bit rate mode : Constant
Bit rate : 384 Kbps
Channel(s) : 6 channels
Channel positions : Front: L C R, Side: L R, LFE
Sampling rate : 48.0 KHz
Bit depth : 16 bits
Compression mode : Lossy
Stream size : 121 MiB (8%)
Language : English
Default : No
Forced : No
-Релиз:
Озвучка: Светлана Слободенюк, Константин Погодаев, Анна Тух
Перевод: Александра Цернант
Работа со звуком: Baggio-Скриншоты:
           
Время раздачи: 24/7 (круглосуточно)
Вне форума [Профиль] [ЛС]
Показать сообщения:    
Ответить на тему

Текущее время: Сегодня 14:35

Часовой пояс: GMT + 3



Вы не можете начинать темы
Вы не можете отвечать на сообщения
Вы не можете редактировать свои сообщения
Вы не можете удалять свои сообщения
Вы не можете голосовать в опросах
Вы не можете прикреплять файлы к сообщениям
Вы не можете скачивать файлы