Сегодня идет свободное скачивание без начисления Download

Смешарики: Караоке со Смешариками (Алексей Горбунов)[2011.,Детский, Музыкальный, Развивающий] DVD5

Ответить на тему
 
Автор
Сообщение

sashau ®

Пол:

Стаж: 6 лет 9 месяцев

Сообщений: 3535

Торрент-статистика

Пост 24-Ноя-2013 09:55

[Цитировать]

Смешарики: Караоке со Смешариками - Русское название: Смешарики: Караоке со Смешариками
Год выпуска: 2011
Жанр: Детский, Музыкальный, Развивающий
Режиссер: Алексей Горбунов
Описание фильма:
Что может быть забавнее и увлекательнее, чем Караоке!? Конечно, караоке со Смешариками! С Кар-Карычем можно исполнить гимн старого города, песенкой Бараша поднять настроение друзьям, а остальными песнями с диска дополнить и разнообразить любой детский (и не только) праздник! Смешарики предлагают окунуться в волшебный мир музыки, которая несет тепло и любовь в каждый дом!
Продолжительность: 01:40:00
Качество видео: DVD5
Видео: PAL 16:9 720x576@1024x576, ~9000 Kbps
Аудио: Русский (Dolby AC3, 2 ch), 48000 Hz, 384 Kbps

Содержание:

Караоке со Смешариками
01. От винта
02. Марафонец
03. Бедненький больной
04. Право на одиночество
05. Куда уходит старый год?
06. Славный город Кострома
07. Песенка о моде
08. Вести-бу-би-лю-би-бу
09. Новогодняя колыбельная
10. Мнём мы мнём
11. Круглая песня
Песни из мультфильма
01. От винта (А. Виноградов)
02. Марафонец (М. Черняк)
03. Бедненький больной (В. Бочанов)
04. Право на одиночество (С. Васильев)
05. Куда уходит старый год? (С. Мардарь)
06. Славный город Кострома (С. Васильев)
07. Песенка о моде (В. Маслаков)
08. Вести-бу-би-лю-би-бу (С. Мардарь)
09. Новогодняя колыбельная (М. Ланда)
10. Мнём мы мнём ("Пластилиновая история")
11. Круглая песня (Музыкальный театр детей)

МедиаИнфо:

Видео
Идентификатор : 224 (0xE0)
Формат : MPEG Video
Версия формата : Version 2
Профиль формата : Main@Main
Параметр BVOP формата : Да
Параметр матрицы формата : Выборочная
Параметр GOP формата : M=3, N=15
Вид битрейта : Переменный
Битрейт : 1768 Мбит/сек
Максимальный битрейт : 8000 Кбит/сек
Ширина : 720 пикселей
Высота : 576 пикселей
Соотношение сторон : 16:9
Частота кадров : 25,000 кадров/сек
Стандарт вещания : PAL
Цветовое пространство : YUV
Субдискретизация насыщенности : 4:2:0
Битовая глубина : 8 бит
Тип развёртки : Чересстрочная
Порядок развёртки : Верхнее поле первое
Метод сжатия : С потерями
Бит/(Пиксели*Кадры) : 170.548
Размер потока : 1003 Мбайт (98%)
Аудио
Идентификатор : 189 (0xBD)-128 (0x80)
Формат : AC-3
Формат/Информация : Audio Coding 3
Расширение режима : CM (complete main)
Параметр Endianness формата : Big
Режим смешивания : DVD-Video
Продолжительность : 4 с. 760 мс.
Вид битрейта : Постоянный
Битрейт : 448 Кбит/сек
Каналы : 2 канала
Расположение каналов : Front: L R
Частота : 48,0 КГц
Битовая глубина : 16 бит
Метод сжатия : С потерями
Задержка видео : -696 мс.
Размер потока : 260 Кбайт (0%)
Меню

Скриншоты Меню:

     
Скриншоты:
         
         
Вне форума [Профиль] [ЛС]
Показать сообщения:    
Ответить на тему

Текущее время: Сегодня 02:40

Часовой пояс: GMT + 3



Вы не можете начинать темы
Вы не можете отвечать на сообщения
Вы не можете редактировать свои сообщения
Вы не можете удалять свои сообщения
Вы не можете голосовать в опросах
Вы не можете прикреплять файлы к сообщениям
Вы не можете скачивать файлы