Today is a free download without charge Download

Прототипы. Давид Гоцман (2013) SATRip

Reply to topic
 
Author
Message

UndegraundMen ®

Longevity: 6 years 11 months

Posts: 25145

Торрент-статистика

Post 23-Nov-2013 23:53

[Quote]

Прототипы. Давид Гоцман (2013) SATRip - Режиссер / Телекомпания: 5
Русское название: Прототипы
Год выпуска: 2013
Жанр: Документальный, история, расследование
Выпущено: Россия, 5 канал
Описание:
Кто являлся историческим прототипом "Майора Вихрь" и "Штирлица"? Кем на самом деле были в жизни прообразы "Жеглова" и "Шарапова". Фильм о том, кто мог выступить прототипом "благородного" одесского бандита "Бени Крика". По мнению многих исследователей, им был Мишка Япончик. На эти вопросы дает ответ документальный мини сериал "Прототипы". В каждой серии рассказывается об одном из исторических персонажей.
Режиссер: Оксана Струтинская
В выпуске: Давид Гоцман
Фильм о том, кто мог выступить прототипом главного героя телесериала "Ликвидация" - сотрудника милиции, начальника отдела по борьбе с бандитизмом Одесского уголовного розыска.
Продолжительность: 00:38:30
Видеокодек: XVID
Качество видео: SATRip
Битрейт видео: ~1500 kb/s
Размер кадра: 720 x 400
Аудиокодек: AC-3, 2.0ch.
Битрейт аудио: 192 kb/s

MediaInfo:

Формат : AVI
Формат/Информация : Audio Video Interleave
Размер файла : 468 Мбайт
Продолжительность : 38 м.
Общий поток : 1700 Кбит/сек
Программа кодирования : VirtualDubMod 1.5.10.3 | www.virtualdub-fr.org || (build 2550/release)
Библиотека кодирования : VirtualDubMod build 2550/release
Видео
Идентификатор : 0
Формат : MPEG-4 Visual
Профиль формата : Advanced Simple@L5
Параметр BVOP формата : 2
Параметр QPel формата : Нет
Параметр GMC формата : Без точки перехода
Параметр матрицы формата : Default (H.263)
Идентификатор кодека : XVID
Идентификатор кодека/Подсказка : XviD
Продолжительность : 38 м.
Битрейт : 1499 Кбит/сек
Ширина : 720 пикселей
Высота : 400 пикселей
Соотношение сторон : 16:9
Частота кадров : 25,000 кадров/сек
Цветовое пространство : YUV
Субдискретизация насыщенности : 4:2:0
Битовая глубина : 8 бит
Тип развёртки : Прогрессивная
Метод сжатия : С потерями
Бит/(Пиксели*Кадры) : 0.208
Размер потока : 413 Мбайт (88%)
Библиотека кодирования : XviD 1.2.1 (UTC 2008-12-04)
Аудио
Идентификатор : 1
Формат : AC-3
Формат/Информация : Audio Coding 3
Расширение режима : CM (complete main)
Идентификатор кодека : 2000
Продолжительность : 38 м.
Вид битрейта : Постоянный
Битрейт : 192 Кбит/сек
Каналы : 2 канала
Расположение каналов : Front: L R
Частота : 48,0 КГц
Битовая глубина : 16 бит
Метод сжатия : С потерями
Размер потока : 52,9 Мбайт (11%)
Выравнивание : Разделение по промежуткам
Продолжительность промежутка : 40 мс. (1,00 видеокадр)
Время предзагрузки промежутка : 500 мс.
Скриншоты:          Время раздачи: 24/7. До первых 5 скачавших.
Rip by Bishop
Other forum [Profile] [PM]
Similar theme
Forum Topic Author Torrent Replies Last Post
./templates/default/images/folder_dl.gif Компьютерная литература Виктор Олифер, Наталия Олифер | Компьютерные сети. Принципы, технологии, протоколы [5-е издание] (2016) [PDF] }{@R0N
1 | 0

0 | 7576

13

2017-04-25 22:08
}{@R0N Latest
Display posts from previous:    
Reply to topic

The time now is: Today 08:14

All times are GMT + 3 Hours



You cannot post new topics in this forum
You cannot reply to topics in this forum
You cannot edit your posts in this forum
You cannot delete your posts in this forum
You cannot vote in polls in this forum
You cannot attach files in this forum
You cannot download files in this forum