Сегодня идет свободное скачивание без начисления Download

Почти человек / Almost Human (2013) WEB-DL 1080p [Сезон 1, Серия 1 из ?] [NewStudio] (обновляемая)

Ответить на тему
 
Автор
Сообщение

UndegraundMen ®

Стаж: 5 лет 8 месяцев

Сообщений: 25860

Торрент-статистика

Пост 19-Ноя-2013 23:00

[Цитировать]

Почти человек / Almost Human (2013) WEB-DL 1080p [Сезон 1, Серия 1 из ?] [NewStudio] (обновляемая)- Год выпуска: 2013
Жанр: Фантастика, Боевик, Драма
Перевод: Многоголосый закадровый, профессиональный
Озвучка: NewStudio
Автор перевода: PtyZa, Weirdie
Релиз группа:

Дата мировой премьеры: 2013
Режиссер: Брэд Андерсон, Майкл Оффер, Ларри Тенг
Актеры: Карл Урбан, Майкл Или, Минка Келли, Майкл Ирби, Макензи Крук, Лили Тейлор
Описание фильма:
Действие происходит в будущем, когда порядок на улицах городов обеспечивают не только «живые» полицейские, но и высокотехнологичные андроиды.
Джон Кеннекс — полицейский, который пережил одну из самых катастрофических атак на департамент полиции. Очнувшись после 17 месяцев пребывания в коме, он не может вспомнить много, но точно помнит, что его напарника убили. Его девушка ушла от него сразу после нападения. Джон потерял ногу и теперь ее заменяет сложная синтетическая конструкция…
Продолжительность: ~00:45:00 серия
Качество видео: WEB-DL 1080p
Сэмпл: Скачать
Битрейт видео: ~4698 kb/s
Размер кадра: 1920x1080
Аудиокодек: AC3 5.1
Битрейт аудио: Русский/Оригинал - 384 kb/sРаздача ведётся путём добавления новых серий

Внимание! Раздача ведётся путём добавления новых серий:

При каждом обновлении создаётся новый торрент.
Чтобы начать докачку новой серии, пользователям необходимо сделать следующее:
1. Остановить скачивание;
2. Удалить старый торрент у себя из клиента (старые серии удалять не надо);
3. Скачать новый торрент и запустить его у себя в клиенте вместо старого, при этом указать клиенту путь в старую папку куда и должно происходить скачивание новых серий. Ваш клиент при этом должен произвести хеширование (проверку) старой папки (если не производит сам - помогите ему сделать это), и будет докачивать только те серии которых у вас ещё нет. Старые серии при этом не удаляются, а продолжают раздаваться! Eсли вы уже удалили старые серии, то предотвратить повторную закачку старых серий можно, отжав галочку в соответствующих местах при запуске нового торрента.

MediaInfo

Общее
Уникальный идентификатор : 203024404633786307976770597116548644967 (0x98BD13F9F11D1BC9AF630FB5C5F28067)
Полное имя : D:\Тоорент\Almost.Human.s01.WEBDL.1080p.NewStudio.TV\Almost.Human.s01e01.WEBDL.1080p.NewStudio.TV.mkv
Формат : Matroska
Версия формата : Version 2
Размер файла : 1,77 Гбайт
Продолжительность : 45 м.
Общий поток : 5569 Кбит/сек
Дата кодирования : UTC 2013-11-19 14:58:02
Программа кодирования : mkvmerge v2.9.9 ('Tutu') built on Nov 25 2009 21:13:32
Библиотека кодирования : libebml v0.7.9 + libmatroska v0.8.1
Видео
Идентификатор : 1
Формат : AVC
Формат/Информация : Advanced Video Codec
Профиль формата : [url=mailto:High@L4.0]High@L4.0[/url]
Параметр CABAC формата : Да
Параметр ReFrames формата : 4 кадра
Идентификатор кодека : V_MPEG4/ISO/AVC
Продолжительность : 45 м.
Битрейт : 4691 Кбит/сек
Ширина : 1916 пикселей
Высота : 1076 пикселей
Соотношение сторон : 16:9
Режим частоты кадров : Постоянный
Частота кадров : 23,976 кадра/сек
Цветовое пространство : YUV
Субдискретизация насыщенности : 4:2:0
Битовая глубина : 8 бит
Тип развёртки : Прогрессивная
Бит/(Пиксели*Кадры) : 0.095
Размер потока : 1,49 Гбайт (84%)
Язык : English
Default : Нет
Forced : Нет
Основные цвета : BT.709
Характеристики трансфера : BT.709
Коэффициенты матрицы : BT.709
Аудио #1
Идентификатор : 2
Формат : AC-3
Формат/Информация : Audio Coding 3
Расширение режима : CM (complete main)
Параметр Endianness формата : Big
Идентификатор кодека : A_AC3
Продолжительность : 45 м.
Вид битрейта : Постоянный
Битрейт : 384 Кбит/сек
Каналы : 6 каналов
Расположение каналов : Front: L C R, Side: L R, LFE
Частота : 48,0 КГц
Битовая глубина : 16 бит
Метод сжатия : С потерями
Размер потока : 125 Мбайт (7%)
Язык : Russian
Default : Да
Forced : Да
Аудио #2
Идентификатор : 3
Формат : AC-3
Формат/Информация : Audio Coding 3
Расширение режима : CM (complete main)
Параметр Endianness формата : Big
Идентификатор кодека : A_AC3
Продолжительность : 45 м.
Вид битрейта : Постоянный
Битрейт : 384 Кбит/сек
Каналы : 6 каналов
Расположение каналов : Front: L C R, Side: L R, LFE
Частота : 48,0 КГц
Битовая глубина : 16 бит
Метод сжатия : С потерями
Размер потока : 125 Мбайт (7%)
Язык : English
Default : Нет
Forced : Нет

Ориентировочный график появления новых серий на сайте:

Не известен
Скриншоты:
         
Все раздачи сериала!
Время раздачи: 24/7
Вне форума [Профиль] [ЛС]
Показать сообщения:    
Ответить на тему

Текущее время: Сегодня 15:04

Часовой пояс: GMT + 3



Вы не можете начинать темы
Вы не можете отвечать на сообщения
Вы не можете редактировать свои сообщения
Вы не можете удалять свои сообщения
Вы не можете голосовать в опросах
Вы не можете прикреплять файлы к сообщениям
Вы не можете скачивать файлы