Сегодня идет свободное скачивание без начисления Download

Симпсоны / The Simpsons / Сезон: 19 / Серии: 4 из 20 (Мэтт Гроенинг / Matt Groening, Дэвид Сильверман / David Silverman ) [2007-2008, Мультсериал, комедия, DVB] DVO

Ответить на тему
 
Автор
Сообщение

Omen ®

Стаж: 4 года 10 месяцев

Сообщений: 190643

Торрент-статистика

Пост 18-Ноя-2013 22:40

[Цитировать]

Симпсоны / The Simpsons- Страна: США
Жанр: Мультсериал, комедия
Продолжительность: 00:22:00 (одной серии)
Год выпуска: 2007-2008
Перевод: Профессиональный (двухголосый закадровый)
Русские субтитры: нет
Режиссёр: Мэтт Гроенинг / Matt Groening, Дэвид Сильверман / David Silverman
Описание: Симпсоны - это мультсериал-пародия на американский уклад жизни. Семейство Симпсонов состоит из пяти членов: папаша Гомер, мать семейства Мардж, их дочери Лиза и Мэгги и несносный подросток Барт. Симпсоны с успехом демонстрируются в США и по всему миру уже 24 года.-Список серий:
04. I Don’t Wanna Know Why the Caged Bird Sings
Семпл: нажми сюда
Качество: DVB
Формат: MPEG-PS
Видео кодек: MPEG
Аудио кодек: MPEG Audio Layer 2
Видео: 768x576@720x576 (4:3), 25 fps, MPEG Video, 3 044 Kbps, 0.294 bit/pixel
Аудио: 48 kHz, MPEG Layer 2, 2 ch, 192 kbps
Субтитры: нет

Подробные технические данные

Код:
General
Complete name                            : ...\The.Simpsons.S19.2007-2008.DVB.-blackaskew\The.Simpsons.S19E04.I.Don’t.Wanna.Know.Why.the.Caged.Bird.Sings.mpg
Format                                   : MPEG-PS
File size                                : 478 MiB
Duration                                 : 20mn 14s
Overall bit rate mode                    : Variable
Overall bit rate                         : 3 302 Kbps
Writing library                          : (c) 1998-2011 Womble Multimedia, Inc. / MPEG Video Wizard DVD 5.0.1.100 (03/2011) / May 27 2011
Video
ID                                       : 224 (0xE0)
Format                                   : MPEG Video
Format version                           : Version 2
Format profile                           : Main@Main
Format settings, BVOP                    : Yes
Format settings, Matrix                  : Custom
Duration                                 : 20mn 14s
Bit rate mode                            : Variable
Bit rate                                 : 3 044 Kbps
Maximum bit rate                         : 15.0 Mbps
Width                                    : 720 pixels
Height                                   : 576 pixels
Display aspect ratio                     : 4:3
Frame rate                               : 25.000 fps
Standard                                 : PAL
Color space                              : YUV
Chroma subsampling                       : 4:2:0
Bit depth                                : 8 bits
Scan type                                : Interlaced
Scan order                               : Top Field First
Compression mode                         : Lossy
Bits/(Pixel*Frame)                       : 0.294
Stream size                              : 441 MiB (92%)
Writing library                          : (c) 1998-2011 Womble Multimedia, Inc. / MPEG Video Wizard DVD 5.0.1.100 (03/2011) / May 27 2011
Audio
ID                                       : 192 (0xC0)
Format                                   : MPEG Audio
Format version                           : Version 1
Format profile                           : Layer 2
Duration                                 : 20mn 14s
Bit rate mode                            : Constant
Bit rate                                 : 192 Kbps
Channel(s)                               : 2 channels
Sampling rate                            : 48.0 KHz
Compression mode                         : Lossy
Delay relative to video                  : -40ms
Stream size                              : 27.8 MiB (6%)

Скриншоты

-
Вне форума [Профиль] [ЛС]
Показать сообщения:    
Ответить на тему

Текущее время: Сегодня 12:42

Часовой пояс: GMT + 3



Вы не можете начинать темы
Вы не можете отвечать на сообщения
Вы не можете редактировать свои сообщения
Вы не можете удалять свои сообщения
Вы не можете голосовать в опросах
Вы не можете прикреплять файлы к сообщениям
Вы не можете скачивать файлы