Сегодня идет свободное скачивание без начисления Download

«Следопыты» / The Pathfinders (1972-1973) DVDRip [(1-4 серии из 12 )]

Ответить на тему
 
Автор
Сообщение

UndegraundMen ®

Стаж: 5 лет 8 месяцев

Сообщений: 25860

Торрент-статистика

Пост 17-Ноя-2013 23:05

[Цитировать]

«Следопыты» / The Pathfinders (1972-1973) DVDRip [(1-4 серии из 12 )]- Год выпуска: 1972-1973
Жанр: Военный, Драма
Перевод: Одноголосый закадровый, любительский
Озвучка / Автор перевода: А. Дольский

Режиссер: Гарри Бут
Актеры: Роберт Эркарт, Джек Уотлинг, Джулиан Орхард, Джек Мэй, Кристофер Кейзнов, Майк Левин, Майкл Вульф, Пол Алексис, Джереми Буллок, Анджела Даун.
Описание фильма:
Сериал рассказывает о «следопытах» - специальном подразделении тяжёлых бомбардировщиков «Ланкастер» 192-й эскадрильи Королевских военно-воздушных сил Великобритании во время Второй мировой войны. «Следопыты» летали впереди основного потока ночных бомбардировщиков, с задачей обнаружить ночью цель и пометить ее осветительными бомбами и специальными разноцветными «маркерами» (ракетами), таким образом обеспечивалась более точная ночная бомбардировка вражеских объектов.
Продолжительность: 4 х ~ 00:49:50
Качество видео: DVDRip
Сэмпл: Скачать
Видеокодек: DivX 4/5/6
Битрейт видео: ~1800
Размер кадра: 704x528
Аудиокодек: AC3
Битрейт аудио: 192.00 kbps avg

Список серий

01. В огонь / Into the Fire
02. В радости или печали / For Better, for Worse
03. Туман / Fog
04. Пролететь туда и обратно / Fly There, Walk Back

MediaInfo

Следопыты The Pathfinders\Sledopyty.1972-1973.DivX.DVDRip.alf62\Sledopyty.(01.serija.iz.12).V.ogon.1972.DivX.DVDRip.alf62.avi
Format : AVI
Format/Info : Audio Video Interleave
File size : 715 MiB
Duration : 49mn 56s
Overall bit rate : 2 001 Kbps
Writing application : VirtualDubMod 1.5.10.3 | www.virtualdub-fr.org || (build 2550/release)
Writing library : VirtualDubMod build 2550/release
Video
ID : 0
Format : MPEG-4 Visual
Format profile : Advanced Simple@L5
Format settings, BVOP : 2
Format settings, QPel : No
Format settings, GMC : No warppoints
Format settings, Matrix : Default (MPEG)
Codec ID : DX50
Codec ID/Hint : DivX 5
Duration : 49mn 56s
Bit rate : 1 800 Kbps
Width : 704 pixels
Height : 528 pixels
Display aspect ratio : 4:3
Frame rate : 25.000 fps
Color space : YUV
Chroma subsampling : 4:2:0
Bit depth : 8 bits
Scan type : Progressive
Compression mode : Lossy
Bits/(Pixel*Frame) : 0.194
Stream size : 643 MiB (90%)
Writing library : XviD 73
Audio
ID : 1
Format : AC-3
Format/Info : Audio Coding 3
Mode extension : CM (complete main)
Format settings, Endianness : Big
Codec ID : 2000
Duration : 49mn 55s
Bit rate mode : Constant
Bit rate : 192 Kbps
Channel(s) : 2 channels
Channel positions : Front: L R
Sampling rate : 48.0 KHz
Bit depth : 16 bits
Compression mode : Lossy
Stream size : 68.6 MiB (10%)
Alignment : Split accross interleaves
Interleave, duration : 40 ms (1.00 video frame)
Interleave, preload duration : 500 ms

Дополнительная информация:

DVDRip by alf62
Большое СПАСИБО за работу над сериалом целому коллективу:
- за авторский перевод и озвучивание:А. Дольскому;
- за финансовое содействие по озвучиванию: alinto, Alf62, Der eiserne Wolf, oas2012, jasenka, умелец54, Lentyai80, babek555, eagle64, super2123, Cybernn, BoomZlik, ZeDOK, edus67, Arias.
- за наложение чистого голоса на оригинальную дорогу: Нордер;
- за первоисточник DVD: alinto
Скриншоты:
         
         
Время раздачи: 24/7 до 5 скачавших, далее - по возможности
Вне форума [Профиль] [ЛС]
Показать сообщения:    
Ответить на тему

Текущее время: Сегодня 02:07

Часовой пояс: GMT + 3



Вы не можете начинать темы
Вы не можете отвечать на сообщения
Вы не можете редактировать свои сообщения
Вы не можете удалять свои сообщения
Вы не можете голосовать в опросах
Вы не можете прикреплять файлы к сообщениям
Вы не можете скачивать файлы