Сегодня идет свободное скачивание без начисления Download

24 часа / 24 (2005) DVDRip (сезон 4, серии 1-24 из 24) (ДТВ)

Ответить на тему
 
Автор
Сообщение

UndegraundMen ®

Стаж: 5 лет 3 месяца

Сообщений: 25871

Торрент-статистика

Пост 14-Ноя-2013 23:08

[Цитировать]

24 часа / 24 (2005) DVDRip (сезон 4, серии 1-24 из 24) (ДТВ) - Год выпуска: 2005
Жанр: Драма, Боевик, Триллер
Перевод: Дублированный (ДТВ)
Релиз группа: NovaFilm

Режиссер: Винрих Колбе
Актеры: Кифер Сазерленд, Черри Джонс, Мэри Линн Ражскуб, Джеймс Моррисон, Энни Вершинг, Боб Гантон, Джефри Нордлинг, Рис Койро, Карлос Бернард
Описание фильма:
В сутках 24 часа, но для Джека Бауэра - шефа элитного антитеррористического подразделения ЦРУ – этого времени явно недостаточно. Ровно за одни сутки он должен успеть спасти город и страну от очередной террористической угрозы. Каждый сезон, состоящий из 24 серий, повествует об одних сутках из жизни Джека, за один день он должен совершить невозможное...
Сезон начинается со смертоносной террористической атаки и похищения Министра Обороны Джеймса Хэллэра. И хотя Бауер уволен из КТП, ничего удивительного в том, что именно он окажется тем, кто начнет борьбу с террористами, нет.
Продолжительность: ~00:41:00 серия
Качество видео: DVDRip
Сэмпл: Скачать
Видеокодек: XVID
Битрейт видео: ~1010kbps
Размер кадра: 640x352
Аудио 1: MP3 128kbps 2ch (Русский)
Аудио 2: MP3 158kbps 2ch (Английский)

MEDIAINFO

Format : AVI
Format/Info : Audio Video Interleave
File size : 389 MiB
Duration : 41mn 14s
Overall bit rate mode : Variable
Overall bit rate : 1 318 Kbps
Writing application : VirtualDubMod 1.5.10.2 (build 2542/release)
Writing library : VirtualDubMod build 2542/release
Video
ID : 0
Format : MPEG-4 Visual
Format profile : Simple@L3
Format settings, BVOP : 2
Format settings, QPel : No
Format settings, GMC : No warppoints
Format settings, Matrix : Default (H.263)
Muxing mode : Packed bitstream
Codec ID : XVID
Codec ID/Hint : XviD
Duration : 41mn 14s
Bit rate : 1 010 Kbps
Width : 640 pixels
Height : 352 pixels
Display aspect ratio : 16:9
Frame rate : 25.000 fps
Color space : YUV
Chroma subsampling : 4:2:0
Bit depth : 8 bits
Scan type : Progressive
Compression mode : Lossy
Bits/(Pixel*Frame) : 0.179
Stream size : 298 MiB (77%)
Writing library : XviD 1.1.0 Beta2 (UTC 2005-04-04)
Audio #1
ID : 1
Format : MPEG Audio
Format version : Version 1
Format profile : Layer 3
Mode : Joint stereo
Mode extension : MS Stereo
Codec ID : 55
Codec ID/Hint : MP3
Duration : 41mn 14s
Bit rate mode : Constant
Bit rate : 128 Kbps
Channel(s) : 2 channels
Sampling rate : 48.0 KHz
Compression mode : Lossy
Stream size : 37.8 MiB (10%)
Alignment : Aligned on interleaves
Interleave, duration : 40 ms (1.00 video frame)
Interleave, preload duration : 504 ms
Audio #2
ID : 2
Format : MPEG Audio
Format version : Version 1
Format profile : Layer 3
Mode : Joint stereo
Mode extension : MS Stereo
Codec ID : 55
Codec ID/Hint : MP3
Duration : 41mn 14s
Bit rate mode : Variable
Bit rate : 158 Kbps
Channel(s) : 2 channels
Sampling rate : 48.0 KHz
Compression mode : Lossy
Stream size : 48.0 MiB (12%)
Alignment : Aligned on interleaves
Interleave, duration : 24 ms (0.60 video frame)
Interleave, preload duration : 113 ms
Writing library : LAME3.96r
Encoding settings : -m j -V 4 -q 3 -lowpass 18 --abr 158
Скриншоты:
       
Время раздачи: 24/7
Вне форума [Профиль] [ЛС]
Показать сообщения:    
Ответить на тему

Текущее время: Сегодня 07:35

Часовой пояс: GMT + 3



Вы не можете начинать темы
Вы не можете отвечать на сообщения
Вы не можете редактировать свои сообщения
Вы не можете удалять свои сообщения
Вы не можете голосовать в опросах
Вы не можете прикреплять файлы к сообщениям
Вы не можете скачивать файлы