Сегодня идет свободное скачивание без начисления Download

Мыслить как преступник / Criminal Minds (2013) WEB-DLRip (Сезон 9 / Серии 1 из ??) Fox (Обновляемая)

Ответить на тему
 
Автор
Сообщение

UndegraundMen ®

Стаж: 5 лет 8 месяцев

Сообщений: 25860

Торрент-статистика

Пост 13-Ноя-2013 23:32

[Цитировать]

Мыслить как преступник / Criminal Minds (2013) WEB-DLRip (Сезон 9 / Серии 1 из ??) Fox (Обновляемая)- Год выпуска: 2013
Страна: США
Жанр: Триллер, драма, криминал, детектив
Перевод: Многоголосый закадровый, профессиональный - Fox
Релиз:

Режиссер: Гай Норман Би
Актеры: Шемар Мур, Томас Гибсон, Мэттью Грэй Габлер, Эй Джей Кук, Пегит Брюстер и др.
Описание фильма:
В Сиэтле за короткое время пропали без вести четыре молодые девушки. Возникает версия, что в городе появился серийный маньяк-убийца. За расследование этого криминального случая берется спецподразделение ФБР, специализирующееся на поведенческом анализе действий преступников.
Во главе этого подразделения стоит Джейсон Гидеон, который со своими напарниками пытается вычислить преступника, создавая его психологический портрет. Джейсон — не частый гость криминалистических лабораторий ФБР. Он и его команда выезжают на места преступлений, опрашивают свидетелей, анализируют и изучают психологическую сторону жизни преступника…
Продолжительность: ~00:41:00 серия
Качество видео: WEB-DLRip
Видеокодек: Xvid
Формат: AVI
Битрейт видео: ~1399 kb/s
Размер кадра: 720х400 (16:9)
Аудио Rus: (MPEG Layer 3, 48,0 kHz, 2 ch, 128 kb/s) - многоголосый закадровый
Аудио Eng: (MPEG Layer 3, 48,0 kHz, 2 ch, 128 kb/s) - оригинал Сэмпл

MediaInfo

Общее
Полное имя : D:\Мыслить как преступник (Сезон 9) Criminal Minds (2013) WEB-DLRip - NewStudio\Criminal.Minds.s09e01.WEBDLRip.NewStudio.TV.avi
Формат : AVI
Формат/Информация : Audio Video Interleave
Размер файла : 499 Мбайт
Продолжительность : 41 м.
Общий поток : 1669 Кбит/сек
Программа кодирования : VirtualDubMod 1.5.10.2 (build 2540/release)
Библиотека кодирования : VirtualDubMod build 2540/release
Видео
Идентификатор : 0
Формат : MPEG-4 Visual
Профиль формата : Advanced Simple@L5
Параметр BVOP формата : 2
Параметр QPel формата : Нет
Параметр GMC формата : Без точки перехода
Параметр матрицы формата : Default (MPEG)
Идентификатор кодека : XVID
Идентификатор кодека/Подсказка : XviD
Продолжительность : 41 м.
Битрейт : 1399 Кбит/сек
Ширина : 720 пикселей
Высота : 400 пикселей
Соотношение сторон : 16:9
Частота кадров : 23,976 кадра/сек
Цветовое пространство : YUV
Субдискретизация насыщенности : 4:2:0
Битовая глубина : 8 бит
Тип развёртки : Прогрессивная
Метод сжатия : С потерями
Бит/(Пиксели*Кадры) : 0.203
Размер потока : 419 Мбайт (84%)
Библиотека кодирования : XviD 64
Аудио #1
Идентификатор : 1
Формат : MPEG Audio
Версия формата : Version 1
Профиль формата : Layer 3
Режим : Joint stereo
Расширение режима : MS Stereo
Идентификатор кодека : 55
Идентификатор кодека/Подсказка : MP3
Продолжительность : 41 м.
Вид битрейта : Постоянный
Битрейт : 128 Кбит/сек
Каналы : 2 канала
Частота : 48,0 КГц
Метод сжатия : С потерями
Размер потока : 38,3 Мбайт (8%)
Выравнивание : Соединение по промежуткам
Продолжительность промежутка : 42 мс. (1,00 видеокадр)
Время предзагрузки промежутка : 504 мс.
Аудио #2
Идентификатор : 2
Формат : MPEG Audio
Версия формата : Version 1
Профиль формата : Layer 3
Режим : Joint stereo
Расширение режима : MS Stereo
Идентификатор кодека : 55
Идентификатор кодека/Подсказка : MP3
Продолжительность : 41 м.
Вид битрейта : Постоянный
Битрейт : 128 Кбит/сек
Каналы : 2 канала
Частота : 48,0 КГц
Метод сжатия : С потерями
Размер потока : 38,3 Мбайт (8%)
Выравнивание : Соединение по промежуткам
Продолжительность промежутка : 42 мс. (1,00 видеокадр)
Время предзагрузки промежутка : 504 мс.

Список серий


01. The Inspiration

Раздача ведётся путём добавления новых серий

Раздача ведётся путём добавления новых серий; при каждом добавлении создаётся новый торрент. Чтобы начать докачку новой серии, пользователям необходимо сделать следующее:
(1) остановить скачивание,
(2) удалить старый торрент у себя из клиента (старые серии удалять не надо),
(3) скачать новый торрент и запустить его у себя в клиенте вместо старого, при этом указать клиенту путь в старую папку куда и должно происходить скачивание новых серий.
Ваш клиент при этом должен произвести хеширование (проверку) старой папки (если не производит сам - помогите ему сделать это), и будет докачивать только те серии которых у вас ещё нет. Старые серии при этом не удаляются, а продолжают раздаваться!
Eсли вы уже удалили старые серии, то предотвратить повторную закачку старых серий можно, отжав галочку в соответствующих местах при запуске нового торрента. По возможности, желательно не удалять старые серии как можно дольше чтобы релизёр не столько продолжал раздавать старые серии, а смог сконцентрироваться на новых.
Скриншоты:
         
Вне форума [Профиль] [ЛС]
Похожие темы
Форум Тема Автор Торрент Отв. Посл. сообщение
./templates/default/images/folder_dl.gif Психология, Тренинг, Саморазвитие Ричард Нисбетт | Мозгоускорители. Как научиться эффективно мыслить, используя приемы из разных наук (2016) [FB2] Omen
1 | 0

0 | 876

10

2016-03-09 18:42
Omen Последнее
Показать сообщения:    
Ответить на тему

Текущее время: Сегодня 07:12

Часовой пояс: GMT + 3



Вы не можете начинать темы
Вы не можете отвечать на сообщения
Вы не можете редактировать свои сообщения
Вы не можете удалять свои сообщения
Вы не можете голосовать в опросах
Вы не можете прикреплять файлы к сообщениям
Вы не можете скачивать файлы