Сегодня идет свободное скачивание без начисления Download

24 часа / 24 (2003-2004) DVDRip (сезон 3, серии 1-24 из 24) (ДТВ)

Ответить на тему
 
Автор
Сообщение

UndegraundMen ®

Стаж: 5 лет 6 месяцев

Сообщений: 25861

Торрент-статистика

Пост 13-Ноя-2013 23:28

[Цитировать]

24 часа / 24 (2003-2004) DVDRip (сезон 3, серии 1-24 из 24) (ДТВ) - Год выпуска: 2003-2004
Жанр: Драма, Боевик, Триллер
Перевод: Дублированный (ДТВ)
Релиз группа: NovaFilm

Режиссер: Винрих Колбе
Актеры: Кифер Сазерленд, Черри Джонс, Мэри Линн Ражскуб, Джеймс Моррисон, Энни Вершинг, Боб Гантон, Джефри Нордлинг, Рис Койро, Карлос Бернард
Описание фильма:
В сутках 24 часа, но для Джека Бауэра - шефа элитного антитеррористического подразделения ЦРУ – этого времени явно недостаточно. Ровно за одни сутки он должен успеть спасти город и страну от очередной террористической угрозы. Каждый сезон, состоящий из 24 серий, повествует об одних сутках из жизни Джека, за один день он должен совершить невозможное...
На этот раз террор принимает биологический характер. Прошло три года с того момента, когда агент CTU Джек Бауер предотвратил попытку террористов втянуть США в войну. Теперь он снова вернулся в Лос-Анджелес после шести месяцев работы под прикрытием, позволившей разоблачить наркобарона Рамона Салзаара. В ФБР поступает звонок от террориста, угрожающим заразить Лос-Анджелес смертоносным вирусом, если Салзаара не выпустят из тюрьмы в течение шести часов. Пока CTU ищет вирус, Джек понимает, что единственный способ предотвратить угрозу - найти сам источник вируса, помогая бежать Салзаару из тюрьмы.
Продолжительность: ~00:49:00 серия
Качество видео: DVDRip
Сэмпл: Скачать
Видеокодек: XVID
Битрейт видео: ~850kbps
Размер кадра: 576x320
Аудио 1: MP3 128kbps 2ch (Русский)
Аудио 2: MP3 128kbps 2ch (Английский)

MEDIAINFO

Format : AVI
Format/Info : Audio Video Interleave
File size : 399 MiB
Duration : 49mn 38s
Overall bit rate mode : Variable
Overall bit rate : 1 123 Kbps
Writing application : VirtualDubMod 1.5.10.2 (build 2542/release)
Writing library : VirtualDubMod build 2542/release
Video
ID : 0
Format : MPEG-4 Visual
Format profile : Advanced Simple@L5
Format settings, BVOP : No
Format settings, QPel : No
Format settings, GMC : No warppoints
Format settings, Matrix : Default (H.263)
Codec ID : XVID
Codec ID/Hint : XviD
Duration : 49mn 38s
Bit rate : 850 Kbps
Width : 576 pixels
Height : 320 pixels
Display aspect ratio : 16:9
Frame rate : 25.000 fps
Color space : YUV
Chroma subsampling : 4:2:0
Bit depth : 8 bits
Scan type : Progressive
Compression mode : Lossy
Bits/(Pixel*Frame) : 0.184
Stream size : 302 MiB (76%)
Writing library : XviD 1.0.1 (UTC 2004-06-05)
Audio #1
ID : 1
Format : MPEG Audio
Format version : Version 1
Format profile : Layer 3
Mode : Joint stereo
Mode extension : MS Stereo
Codec ID : 55
Codec ID/Hint : MP3
Duration : 49mn 38s
Bit rate mode : Constant
Bit rate : 128 Kbps
Channel(s) : 2 channels
Sampling rate : 48.0 KHz
Compression mode : Lossy
Stream size : 45.4 MiB (11%)
Alignment : Aligned on interleaves
Interleave, duration : 40 ms (1.00 video frame)
Interleave, preload duration : 504 ms
Audio #2
ID : 2
Format : MPEG Audio
Format version : Version 1
Format profile : Layer 3
Mode : Joint stereo
Mode extension : MS Stereo
Codec ID : 55
Codec ID/Hint : MP3
Duration : 49mn 38s
Bit rate mode : Variable
Bit rate : 128 Kbps
Channel(s) : 2 channels
Sampling rate : 48.0 KHz
Compression mode : Lossy
Stream size : 45.2 MiB (11%)
Alignment : Aligned on interleaves
Interleave, duration : 24 ms (0.60 video frame)
Interleave, preload duration : 328 ms
Writing library : LAME3.93a
Encoding settings : -m j -V 4 -q 2 -lowpass 17.5 --abr 128
Скриншоты:
       
Время раздачи: 24/7
Вне форума [Профиль] [ЛС]
Показать сообщения:    
Ответить на тему

Текущее время: Сегодня 23:26

Часовой пояс: GMT + 3



Вы не можете начинать темы
Вы не можете отвечать на сообщения
Вы не можете редактировать свои сообщения
Вы не можете удалять свои сообщения
Вы не можете голосовать в опросах
Вы не можете прикреплять файлы к сообщениям
Вы не можете скачивать файлы