Сегодня идет свободное скачивание без начисления Download

Аватар: Легенда об Аанге Книга 1. Вода / Avatar: The Last Airbender The book 1. Water (20 серий из 20) (Michael Dante DiMartino / Майкл Данте ДиМартино) [2006 г., приключения, семейный, фэнтези, DVDRip-AVC] Dub

Ответить на тему
 
Автор
Сообщение

Delia ®

Пол:

Стаж: 7 лет 5 месяцев

Сообщений: 1828

Торрент-статистика

Пост 31-Окт-2011 13:19

[Цитировать]

Аватар: Легенда об Аанге Книга 1.Вода/ Avatar: The Last Airbender The book 1.Water- Год выпуска: 2005
Страна: США
Жанр: приключения, семейный, фэнтези
Продолжительность: 20 серий по 22 минуты
Перевод: Профессиональный (полное дублирование)[Nickelodeon]
Русские субтитры: нет
Режиссер: Майкл Данте ДиМартино
Описание: «Аватар: Легенда об Аанге» — это история Аанга, двенадцатилетнего мальчика, который просто хотел жить обычной жизнью, но в его судьбу вмешалось появление долгожданного Аватара. Аанг призван возглавить борьбу с жестоким Народом Огня, чтобы восстановить равновесие в разобщенном войной мире. Аанг отправляется в опасное путешествие, чтобы спасти мир. Ему помогают юная, но отважная Маг Воды ,по имени Катара и её простодушный брат-воинпо имени Сокка. Согласно легенде, Аангу надо выучить магию Воды, затем Земли, а затем Огня... В пути Аанг иногда забывает о своей нелегкой миссии, и тогда он просто радуется тому, что он обычный мальчишка

Качество: DVDRip
Формат: MKV
Видео кодек: H.264
Аудио кодек: AAC
Видео: MPEG4 Video (H264) 720x536 23.97fps
Аудио: Russian Dolby 48000kHz, MPEG Layer 3, 2 ch, ~192.00 kbps avg
English Dolby 48000kHz, AC3 Dolby Digital, 2/0 (L,R) ch, ~192.00 kbps avg

MediaInfo

General
Format : Matroska
File size : 172 MiB
Duration : 23mn 4s
Overall bit rate : 1 045 Kbps
Encoded date : UTC 2010-06-19 13:10:13
Writing application : mkvmerge v2.9.8 ('C'est le bon') built on Aug 13 2009 12:49:06
Writing library : libebml v0.7.7 + libmatroska v0.8.1
Video
ID : 1
Format : AVC
Format/Info : Advanced Video Codec
Format profile : High@L3.1
Format settings, CABAC : Yes
Format settings, ReFrames : 8 frames
Muxing mode : Container profile=Unknown@3.1
Codec ID : V_MPEG4/ISO/AVC
Duration : 23mn 4s
Bit rate : 850 Kbps
Width : 720 pixels
Height : 536 pixels
Display aspect ratio : 4:3
Frame rate : 23.976 fps
Color space : YUV
Chroma subsampling : 4:2:0
Bit depth : 8 bits
Scan type : Progressive
Bits/(Pixel*Frame) : 0.092
Stream size : 137 MiB (80%)
Writing library : x264 core 92 r1510 33d382a
Encoding settings : cabac=1 / ref=8 / deblock=1:-1:-1 / analyse=0x3:0x133 / me=tesa / subme=10 / psy=1 / psy_rd=0.40:0.00 / mixed_ref=1 / me_range=24 / chroma_me=1 / trellis=2 / 8x8dct=1 / cqm=0 / deadzone=21,11 / fast_pskip=0 / chroma_qp_offset=-2 / threads=3 / sliced_threads=0 / nr=0 / decimate=1 / interlaced=0 / constrained_intra=0 / bframes=8 / b_pyramid=2 / b_adapt=1 / b_bias=0 / direct=3 / wpredb=0 / wpredp=2 / keyint=250 / keyint_min=25 / scenecut=40 / intra_refresh=0 / rc_lookahead=60 / rc=2pass / mbtree=1 / bitrate=850 / ratetol=1.0 / qcomp=0.70 / qpmin=10 / qpmax=51 / qpstep=4 / cplxblur=20.0 / qblur=0.5 / ip_ratio=1.40 / aq=1:0.60
Language : English
Audio #1
ID : 2
Format : AC-3
Format/Info : Audio Coding 3
Mode extension : CM (complete main)
Codec ID : A_AC3
Duration : 23mn 4s
Bit rate mode : Constant
Bit rate : 96.0 Kbps
Channel(s) : 2 channels
Channel positions : Front: L R
Sampling rate : 48.0 KHz
Stream size : 15.8 MiB (9%)
Language : Russian
Audio #2
ID : 3
Format : AC-3
Format/Info : Audio Coding 3
Mode extension : CM (complete main)
Codec ID : A_AC3
Duration : 23mn 4s
Bit rate mode : Constant
Bit rate : 96.0 Kbps
Channel(s) : 2 channels
Channel positions : Front: L R
Sampling rate : 48.0 KHz
Stream size : 15.8 MiB (9%)
Language : English

Скриншоты

       

_________________
Человек – это канат, натянутый между животным и сверхчеловеком, – канат над пропастью.
В человеке ценно то, что он мост, а не цель. Фридрих Ницше


Последний раз редактировалось: Delia (2011-10-31 13:25), всего редактировалось 1 раз
Вне форума [Профиль] [ЛС]
Показать сообщения:    
Ответить на тему

Текущее время: Сегодня 01:27

Часовой пояс: GMT + 3



Вы не можете начинать темы
Вы не можете отвечать на сообщения
Вы не можете редактировать свои сообщения
Вы не можете удалять свои сообщения
Вы не можете голосовать в опросах
Вы не можете прикреплять файлы к сообщениям
Вы не можете скачивать файлы