Today is a free download without charge Download

Lady Gaga - ARTPOP (2013) Explicit [AAC|WEB-DL|256 кб/с]

Reply to topic
 
Author
Message

UndegraundMen ®

Longevity: 7 years 9 months

Posts: 25145

Торрент-статистика

Post 12-Nov-2013 11:00

[Quote]

Lady Gaga - ARTPOP (2013) Explicit - Год: 2013
Жанр: Pop
Источник: iTunes
Лейбл: Interscope Records
Продолжительность: 00:59:04
Кодек: AAC
Битрейт: 256 кб/с
Тип битрейта: VBR
Треклист:
01. Aura (3:56)
02. Venus (3:54)
03. G.U.Y. (3:53)
04. Sexxx Dreams (3:35)
05. Jewels N' Drugs (feat. T.I., Too $hort & Twista) ( 3:4 )
06. MANiCURE (3:20)
07. Do What U Want (feat. R. Kelly) (3:47)
08. Artpop (4:07)
09. Swine (4:29)
10. Donatella (4:25)
11. Fashion! (4:00)
12. Mary Jane Holland (4:38)
13. Dope (3:42)
14. Gypsy (4:09)
15. Applause (3:32)

Mediainfo:

Код:
General
Complete name                            : /Users/Kat/Downloads/Lady Gaga (2013) ARTPOP (AAC)/01 Aura.m4a
Format                                   : MPEG-4
Format profile                           : Apple audio with iTunes info
Codec ID                                 : M4A
File size                                : 8.11 MiB
Duration                                 : 3mn 55s
Overall bit rate mode                    : Variable
Overall bit rate                         : 288 Kbps
Album                                    : ARTPOP
Album/Performer                          : Lady Gaga
Part/Position                            : 1
Part/Total                               : 1
Track name                               : Aura
Track name/Position                      : 1
Track name/Total                         : 14
Performer                                : Lady Gaga
Genre                                    : Поп-музыка
ContentType                              : Music
Recorded date                            : UTC 2013-11-08 08:00:00
Tagged date                              : UTC 2013-11-11 16:19:38
Copyright                                : ℗ 2013 Interscope Records
Cover                                    : Yes
Rating                                   : Explicit
AppleStoreCatalogID                      : 687737885
AlbumTitleID                             : 277293880
PlayListID                               : 687737873
GenreID                                  : 14
Vendor                                   : Universal:isrc:USUM71310770
Flavour                                  : 2:256
iTunMOVI                                 :  /  /  /  /   asset-info /    /     file-size /     8499644 /     flavor /     2:256 /    /  /
Audio
ID                                       : 1
Format                                   : AAC
Format/Info                              : Advanced Audio Codec
Format profile                           : LC
Codec ID                                 : 40
Duration                                 : 3mn 55s
Bit rate mode                            : Variable
Bit rate                                 : 256 Kbps
Maximum bit rate                         : 388 Kbps
Channel count                            : 2 channels
Channel positions                        : Front: L R
Sampling rate                            : 44.1 KHz
Compression mode                         : Lossy
Stream size                              : 7.53 MiB (93%)
Language                                 : English
Tagged date                              : UTC 2013-11-11 20:03:06
General
Complete name                            : /Users/Kat/Downloads/Lady Gaga (2013) ARTPOP (AAC)/02 Venus.m4a
Format                                   : MPEG-4
Format profile                           : Apple audio with iTunes info
Codec ID                                 : M4A
File size                                : 7.89 MiB
Duration                                 : 3mn 53s
Overall bit rate mode                    : Variable
Overall bit rate                         : 283 Kbps
Album                                    : ARTPOP
Album/Performer                          : Lady Gaga
Part/Position                            : 1
Part/Total                               : 1
Track name                               : Venus
Track name/Position                      : 2
Track name/Total                         : 14
Performer                                : Lady Gaga
Genre                                    : Поп-музыка
ContentType                              : Music
Recorded date                            : UTC 2013-11-08 08:00:00
Tagged date                              : UTC 2013-11-11 16:19:39
Copyright                                : ℗ 2013 Interscope Records
Cover                                    : Yes
Rating                                   : Explicit
AppleStoreCatalogID                      : 687737886
AlbumTitleID                             : 277293880
PlayListID                               : 687737873
GenreID                                  : 14
Vendor                                   : Universal:isrc:USUM71310771
Flavour                                  : 2:256
iTunMOVI                                 :  /  /  /  /   asset-info /    /     file-size /     8275346 /     flavor /     2:256 /    /  /
Audio
ID                                       : 1
Format                                   : AAC
Format/Info                              : Advanced Audio Codec
Format profile                           : LC
Codec ID                                 : 40
Duration                                 : 3mn 53s
Bit rate mode                            : Variable
Bit rate                                 : 256 Kbps
Maximum bit rate                         : 315 Kbps
Channel count                            : 2 channels
Channel positions                        : Front: L R
Sampling rate                            : 44.1 KHz
Compression mode                         : Lossy
Stream size                              : 7.32 MiB (93%)
Language                                 : English
Tagged date                              : UTC 2013-11-04 18:03:26
General
Complete name                            : /Users/Kat/Downloads/Lady Gaga (2013) ARTPOP (AAC)/03 G.U.Y..m4a
Format                                   : MPEG-4
Format profile                           : Apple audio with iTunes info
Codec ID                                 : M4A
File size                                : 8.08 MiB
Duration                                 : 3mn 52s
Overall bit rate mode                    : Variable
Overall bit rate                         : 291 Kbps
Album                                    : ARTPOP
Album/Performer                          : Lady Gaga
Part/Position                            : 1
Part/Total                               : 1
Track name                               : G.U.Y.
Track name/Position                      : 3
Track name/Total                         : 14
Performer                                : Lady Gaga
Genre                                    : Поп-музыка
ContentType                              : Music
Recorded date                            : UTC 2013-11-08 08:00:00
Encoded date                             : UTC 2036-06-01 02:34:54
Tagged date                              : UTC 2013-11-11 16:19:39
Copyright                                : ℗ 2013 Interscope Records
Cover                                    : Yes
Rating                                   : Explicit
AppleStoreCatalogID                      : 687737887
AlbumTitleID                             : 277293880
PlayListID                               : 687737873
GenreID                                  : 14
Vendor                                   : Universal:isrc:USUM71310772
Flavour                                  : 2:256
iTunMOVI                                 :  /  /  /  /   asset-info /    /     file-size /     8469724 /     flavor /     2:256 /    /  /
Audio
ID                                       : 1
Format                                   : AAC
Format/Info                              : Advanced Audio Codec
Format profile                           : LC
Codec ID                                 : 40
Duration                                 : 3mn 52s
Bit rate mode                            : Variable
Bit rate                                 : 271 Kbps
Nominal bit rate                         : 256 Kbps
Maximum bit rate                         : 425 Kbps
Channel count                            : 2 channels
Channel positions                        : Front: L R
Sampling rate                            : 44.1 KHz
Compression mode                         : Lossy
Stream size                              : 7.51 MiB (93%)
Language                                 : English
Encoded date                             : UTC 2036-06-01 02:34:54
Tagged date                              : UTC 2013-11-11 20:03:15
General
Complete name                            : /Users/Kat/Downloads/Lady Gaga (2013) ARTPOP (AAC)/04 Sexxx Dreams.m4a
Format                                   : MPEG-4
Format profile                           : Apple audio with iTunes info
Codec ID                                 : M4A
File size                                : 7.47 MiB
Duration                                 : 3mn 34s
Overall bit rate mode                    : Variable
Overall bit rate                         : 292 Kbps
Album                                    : ARTPOP
Album/Performer                          : Lady Gaga
Part/Position                            : 1
Part/Total                               : 1
Track name                               : Sexxx Dreams
Track name/Position                      : 4
Track name/Total                         : 14
Performer                                : Lady Gaga
Genre                                    : Поп-музыка
ContentType                              : Music
Recorded date                            : UTC 2013-11-08 08:00:00
Encoded date                             : UTC 1999-09-25 15:16:30
Tagged date                              : UTC 2013-11-11 16:19:39
Copyright                                : ℗ 2013 Interscope Records
Cover                                    : Yes
Rating                                   : Explicit
AppleStoreCatalogID                      : 687737888
AlbumTitleID                             : 277293880
PlayListID                               : 687737873
GenreID                                  : 14
Vendor                                   : Universal:isrc:USUM71310773
Flavour                                  : 2:256
iTunMOVI                                 :  /  /  /  /   asset-info /    /     file-size /     7828235 /     flavor /     2:256 /    /  /
Audio
ID                                       : 1
Format                                   : AAC
Format/Info                              : Advanced Audio Codec
Format profile                           : LC
Codec ID                                 : 40
Duration                                 : 3mn 34s
Bit rate mode                            : Variable
Bit rate                                 : 256 Kbps
Maximum bit rate                         : 346 Kbps
Channel count                            : 2 channels
Channel positions                        : Front: L R
Sampling rate                            : 44.1 KHz
Compression mode                         : Lossy
Stream size                              : 6.90 MiB (92%)
Language                                 : English
Encoded date                             : UTC 1999-09-25 15:16:30
Tagged date                              : UTC 2013-11-11 20:03:13
General
Complete name                            : /Users/Kat/Downloads/Lady Gaga (2013) ARTPOP (AAC)/05 Jewels N' Drugs (feat. T.I., Too $hort & Twista).m4a
Format                                   : MPEG-4
Format profile                           : Apple audio with iTunes info
Codec ID                                 : M4A
File size                                : 7.83 MiB
Duration                                 : 3mn 48s
Overall bit rate mode                    : Variable
Overall bit rate                         : 288 Kbps
Album                                    : ARTPOP
Album/Performer                          : Lady Gaga
Part/Position                            : 1
Part/Total                               : 1
Track name                               : Jewels N' Drugs (feat. T.I., Too $hort & Twista)
Track name/Position                      : 5
Track name/Total                         : 14
Performer                                : Lady Gaga
Genre                                    : Поп-музыка
ContentType                              : Music
Recorded date                            : UTC 2013-11-08 08:00:00
Encoded date                             : UTC 1997-08-09 21:55:26
Tagged date                              : UTC 2013-11-11 16:19:39
Copyright                                : ℗ 2013 Interscope Records
Cover                                    : Yes
Rating                                   : Explicit
AppleStoreCatalogID                      : 687738070
AlbumTitleID                             : 277293880
PlayListID                               : 687737873
GenreID                                  : 14
Vendor                                   : Universal:isrc:USUM71310774
Flavour                                  : 2:256
iTunMOVI                                 :  /  /  /  /   asset-info /    /     file-size /     8210311 /     flavor /     2:256 /    /  /
Audio
ID                                       : 1
Format                                   : AAC
Format/Info                              : Advanced Audio Codec
Format profile                           : LC
Codec ID                                 : 40
Duration                                 : 3mn 48s
Bit rate mode                            : Variable
Bit rate                                 : 256 Kbps
Maximum bit rate                         : 324 Kbps
Channel count                            : 2 channels
Channel positions                        : Front: L R
Sampling rate                            : 44.1 KHz
Compression mode                         : Lossy
Stream size                              : 7.26 MiB (93%)
Language                                 : English
Encoded date                             : UTC 1997-08-09 21:55:26
Tagged date                              : UTC 2013-11-11 20:03:18
General
Complete name                            : /Users/Kat/Downloads/Lady Gaga (2013) ARTPOP (AAC)/06 MANiCURE.m4a
Format                                   : MPEG-4
Format profile                           : Apple audio with iTunes info
Codec ID                                 : M4A
File size                                : 6.86 MiB
Duration                                 : 3mn 19s
Overall bit rate mode                    : Variable
Overall bit rate                         : 288 Kbps
Album                                    : ARTPOP
Album/Performer                          : Lady Gaga
Part/Position                            : 1
Part/Total                               : 1
Track name                               : MANiCURE
Track name/Position                      : 6
Track name/Total                         : 14
Performer                                : Lady Gaga
Genre                                    : Поп-музыка
ContentType                              : Music
Recorded date                            : UTC 2013-11-08 08:00:00
Encoded date                             : UTC 1971-01-10 15:14:22
Tagged date                              : UTC 2013-11-11 16:19:39
Copyright                                : ℗ 2013 Interscope Records
Cover                                    : Yes
Rating                                   : None
AppleStoreCatalogID                      : 687738071
AlbumTitleID                             : 277293880
PlayListID                               : 687737873
GenreID                                  : 14
Vendor                                   : Universal:isrc:USUM71310775
Flavour                                  : 2:256
iTunMOVI                                 :  /  /  /  /   asset-info /    /     file-size /     7190596 /     flavor /     2:256 /    /  /
Audio
ID                                       : 1
Format                                   : AAC
Format/Info                              : Advanced Audio Codec
Format profile                           : LC
Codec ID                                 : 40
Duration                                 : 3mn 19s
Bit rate mode                            : Variable
Bit rate                                 : 256 Kbps
Maximum bit rate                         : 343 Kbps
Channel count                            : 2 channels
Channel positions                        : Front: L R
Sampling rate                            : 44.1 KHz
Compression mode                         : Lossy
Stream size                              : 6.29 MiB (92%)
Language                                 : English
Encoded date                             : UTC 1971-01-10 15:14:22
Tagged date                              : UTC 2013-11-11 20:03:33
General
Complete name                            : /Users/Kat/Downloads/Lady Gaga (2013) ARTPOP (AAC)/07 Do What U Want (feat. R. Kelly).m4a
Format                                   : MPEG-4
Format profile                           : Apple audio with iTunes info
Codec ID                                 : M4A
File size                                : 7.65 MiB
Duration                                 : 3mn 47s
Overall bit rate mode                    : Variable
Overall bit rate                         : 282 Kbps
Album                                    : ARTPOP
Album/Performer                          : Lady Gaga
Part/Position                            : 1
Part/Total                               : 1
Track name                               : Do What U Want (feat. R. Kelly)
Track name/Position                      : 7
Track name/Total                         : 14
Performer                                : Lady Gaga
Genre                                    : Поп-музыка
ContentType                              : Music
Recorded date                            : UTC 2013-11-08 08:00:00
Tagged date                              : UTC 2013-11-11 16:19:39
Copyright                                : ℗ 2013 Interscope Records
Cover                                    : Yes
Rating                                   : Explicit
AppleStoreCatalogID                      : 687738072
AlbumTitleID                             : 277293880
PlayListID                               : 687737873
GenreID                                  : 14
Vendor                                   : Universal:isrc:USUM71310776
iTunMOVI                                 :  /  /  /  /   asset-info /    /     file-size /     8017044 /     flavor /     2:256 /    /  /
Audio
ID                                       : 1
Format                                   : AAC
Format/Info                              : Advanced Audio Codec
Format profile                           : LC
Codec ID                                 : 40
Duration                                 : 3mn 47s
Bit rate mode                            : Variable
Bit rate                                 : 256 Kbps
Maximum bit rate                         : 318 Kbps
Channel count                            : 2 channels
Channel positions                        : Front: L R
Sampling rate                            : 44.1 KHz
Compression mode                         : Lossy
Stream size                              : 7.07 MiB (93%)
Language                                 : English
Tagged date                              : UTC 2013-10-25 20:26:20
General
Complete name                            : /Users/Kat/Downloads/Lady Gaga (2013) ARTPOP (AAC)/08 Artpop.m4a
Format                                   : MPEG-4
Format profile                           : Apple audio with iTunes info
Codec ID                                 : M4A
File size                                : 8.30 MiB
Duration                                 : 4mn 7s
Overall bit rate mode                    : Variable
Overall bit rate                         : 281 Kbps
Album                                    : ARTPOP
Album/Performer                          : Lady Gaga
Part/Position                            : 1
Part/Total                               : 1
Track name                               : Artpop
Track name/Position                      : 8
Track name/Total                         : 14
Performer                                : Lady Gaga
Genre                                    : Поп-музыка
ContentType                              : Music
Recorded date                            : UTC 2013-11-08 08:00:00
Encoded date                             : UTC 1974-09-30 03:23:58
Tagged date                              : UTC 2013-11-11 16:19:39
Copyright                                : ℗ 2013 Interscope Records
Cover                                    : Yes
Rating                                   : None
AppleStoreCatalogID                      : 687738073
AlbumTitleID                             : 277293880
PlayListID                               : 687737873
GenreID                                  : 14
Vendor                                   : Universal:isrc:USUM71310777
Flavour                                  : 2:256
iTunMOVI                                 :  /  /  /  /   asset-info /    /     file-size /     8702389 /     flavor /     2:256 /    /  /
Audio
ID                                       : 1
Format                                   : AAC
Format/Info                              : Advanced Audio Codec
Format profile                           : LC
Codec ID                                 : 40
Duration                                 : 4mn 7s
Bit rate mode                            : Variable
Bit rate                                 : 256 Kbps
Maximum bit rate                         : 324 Kbps
Channel count                            : 2 channels
Channel positions                        : Front: L R
Sampling rate                            : 44.1 KHz
Compression mode                         : Lossy
Stream size                              : 7.72 MiB (93%)
Language                                 : English
Encoded date                             : UTC 1974-09-30 03:23:58
Tagged date                              : UTC 2013-11-11 20:03:47
General
Complete name                            : /Users/Kat/Downloads/Lady Gaga (2013) ARTPOP (AAC)/09 Swine.m4a
Format                                   : MPEG-4
Format profile                           : Apple audio with iTunes info
Codec ID                                 : M4A
File size                                : 9.25 MiB
Duration                                 : 4mn 28s
Overall bit rate mode                    : Variable
Overall bit rate                         : 289 Kbps
Album                                    : ARTPOP
Album/Performer                          : Lady Gaga
Part/Position                            : 1
Part/Total                               : 1
Track name                               : Swine
Track name/Position                      : 9
Track name/Total                         : 14
Performer                                : Lady Gaga
Genre                                    : Поп-музыка
ContentType                              : Music
Recorded date                            : UTC 2013-11-08 08:00:00
Encoded date                             : UTC 2010-11-23 16:09:50
Tagged date                              : UTC 2013-11-11 16:19:39
Copyright                                : ℗ 2013 Interscope Records
Cover                                    : Yes
Rating                                   : Explicit
AppleStoreCatalogID                      : 687738074
AlbumTitleID                             : 277293880
PlayListID                               : 687737873
GenreID                                  : 14
Vendor                                   : Universal:isrc:USUM71310778
Flavour                                  : 2:256
iTunMOVI                                 :  /  /  /  /   asset-info /    /     file-size /     9702541 /     flavor /     2:256 /    /  /
Audio
ID                                       : 1
Format                                   : AAC
Format/Info                              : Advanced Audio Codec
Format profile                           : LC
Codec ID                                 : 40
Duration                                 : 4mn 28s
Bit rate mode                            : Variable
Bit rate                                 : 271 Kbps
Nominal bit rate                         : 256 Kbps
Maximum bit rate                         : 348 Kbps
Channel count                            : 2 channels
Channel positions                        : Front: L R
Sampling rate                            : 44.1 KHz
Compression mode                         : Lossy
Stream size                              : 8.67 MiB (94%)
Language                                 : English
Encoded date                             : UTC 2010-11-23 16:09:50
Tagged date                              : UTC 2013-11-11 20:03:48
General
Complete name                            : /Users/Kat/Downloads/Lady Gaga (2013) ARTPOP (AAC)/10 Donatella.m4a
Format                                   : MPEG-4
Format profile                           : Apple audio with iTunes info
Codec ID                                 : M4A
File size                                : 9.04 MiB
Duration                                 : 4mn 24s
Overall bit rate mode                    : Variable
Overall bit rate                         : 286 Kbps
Album                                    : ARTPOP
Album/Performer                          : Lady Gaga
Part/Position                            : 1
Part/Total                               : 1
Track name                               : Donatella
Track name/Position                      : 10
Track name/Total                         : 14
Performer                                : Lady Gaga
Genre                                    : Поп-музыка
ContentType                              : Music
Recorded date                            : UTC 2013-11-08 08:00:00
Tagged date                              : UTC 2013-11-11 16:19:39
Copyright                                : ℗ 2013 Interscope Records
Cover                                    : Yes
Rating                                   : Explicit
AppleStoreCatalogID                      : 687738075
AlbumTitleID                             : 277293880
PlayListID                               : 687737873
GenreID                                  : 14
Vendor                                   : Universal:isrc:USUM71310779
Flavour                                  : 2:256
iTunMOVI                                 :  /  /  /  /   asset-info /    /     file-size /     9475538 /     flavor /     2:256 /    /  /
Audio
ID                                       : 1
Format                                   : AAC
Format/Info                              : Advanced Audio Codec
Format profile                           : LC
Codec ID                                 : 40
Duration                                 : 4mn 24s
Bit rate mode                            : Variable
Bit rate                                 : 256 Kbps
Maximum bit rate                         : 422 Kbps
Channel count                            : 2 channels
Channel positions                        : Front: L R
Sampling rate                            : 44.1 KHz
Compression mode                         : Lossy
Stream size                              : 8.46 MiB (94%)
Language                                 : English
Tagged date                              : UTC 2013-11-11 20:03:50
General
Complete name                            : /Users/Kat/Downloads/Lady Gaga (2013) ARTPOP (AAC)/11 Fashion!.m4a
Format                                   : MPEG-4
Format profile                           : Apple audio with iTunes info
Codec ID                                 : M4A
File size                                : 8.18 MiB
Duration                                 : 3mn 59s
Overall bit rate mode                    : Variable
Overall bit rate                         : 286 Kbps
Album                                    : ARTPOP
Album/Performer                          : Lady Gaga
Part/Position                            : 1
Part/Total                               : 1
Track name                               : Fashion!
Track name/Position                      : 11
Track name/Total                         : 14
Performer                                : Lady Gaga
Genre                                    : Поп-музыка
ContentType                              : Music
Recorded date                            : UTC 2013-11-08 08:00:00
Tagged date                              : UTC 2013-11-11 16:19:40
Copyright                                : ℗ 2013 Interscope Records
Cover                                    : Yes
Rating                                   : None
AppleStoreCatalogID                      : 687738076
AlbumTitleID                             : 277293880
PlayListID                               : 687737873
GenreID                                  : 14
Vendor                                   : Universal:isrc:USUM71310780
Flavour                                  : 2:256
iTunMOVI                                 :  /  /  /  /   asset-info /    /     file-size /     8574965 /     flavor /     2:256 /    /  /
Audio
ID                                       : 1
Format                                   : AAC
Format/Info                              : Advanced Audio Codec
Format profile                           : LC
Codec ID                                 : 40
Duration                                 : 3mn 59s
Bit rate mode                            : Variable
Bit rate                                 : 256 Kbps
Maximum bit rate                         : 348 Kbps
Channel count                            : 2 channels
Channel positions                        : Front: L R
Sampling rate                            : 44.1 KHz
Compression mode                         : Lossy
Stream size                              : 7.60 MiB (93%)
Language                                 : English
Tagged date                              : UTC 2013-11-11 20:04:05
General
Complete name                            : /Users/Kat/Downloads/Lady Gaga (2013) ARTPOP (AAC)/12 Mary Jane Holland.m4a
Format                                   : MPEG-4
Format profile                           : Apple audio with iTunes info
Codec ID                                 : M4A
File size                                : 9.37 MiB
Duration                                 : 4mn 37s
Overall bit rate mode                    : Variable
Overall bit rate                         : 283 Kbps
Album                                    : ARTPOP
Album/Performer                          : Lady Gaga
Part/Position                            : 1
Part/Total                               : 1
Track name                               : Mary Jane Holland
Track name/Position                      : 12
Track name/Total                         : 14
Performer                                : Lady Gaga
Genre                                    : Поп-музыка
ContentType                              : Music
Recorded date                            : UTC 2013-11-08 08:00:00
Encoded date                             : UTC 2024-09-20 03:09:02
Tagged date                              : UTC 2013-11-11 16:19:40
Copyright                                : ℗ 2013 Interscope Records
Cover                                    : Yes
Rating                                   : Explicit
AppleStoreCatalogID                      : 687738077
AlbumTitleID                             : 277293880
PlayListID                               : 687737873
GenreID                                  : 14
Vendor                                   : Universal:isrc:USUM71310781
Flavour                                  : 2:256
iTunMOVI                                 :  /  /  /  /   asset-info /    /     file-size /     9826085 /     flavor /     2:256 /    /  /
Audio
ID                                       : 1
Format                                   : AAC
Format/Info                              : Advanced Audio Codec
Format profile                           : LC
Codec ID                                 : 40
Duration                                 : 4mn 37s
Bit rate mode                            : Variable
Bit rate                                 : 256 Kbps
Maximum bit rate                         : 309 Kbps
Channel count                            : 2 channels
Channel positions                        : Front: L R
Sampling rate                            : 44.1 KHz
Compression mode                         : Lossy
Stream size                              : 8.79 MiB (94%)
Language                                 : English
Encoded date                             : UTC 2024-09-20 03:09:02
Tagged date                              : UTC 2013-11-11 20:04:16
General
Complete name                            : /Users/Kat/Downloads/Lady Gaga (2013) ARTPOP (AAC)/13 Dope.m4a
Format                                   : MPEG-4
Format profile                           : Apple audio with iTunes info
Codec ID                                 : M4A
File size                                : 7.34 MiB
Duration                                 : 3mn 41s
Overall bit rate mode                    : Variable
Overall bit rate                         : 278 Kbps
Album                                    : ARTPOP
Album/Performer                          : Lady Gaga
Part/Position                            : 1
Part/Total                               : 1
Track name                               : Dope
Track name/Position                      : 13
Track name/Total                         : 14
Performer                                : Lady Gaga
Genre                                    : Поп-музыка
ContentType                              : Music
Recorded date                            : UTC 2013-11-08 08:00:00
Encoded date                             : UTC 1976-11-14 20:45:02
Tagged date                              : UTC 2013-11-11 16:19:40
Copyright                                : ℗ 2013 Interscope Records
Cover                                    : Yes
Rating                                   : Explicit
AppleStoreCatalogID                      : 687738078
AlbumTitleID                             : 277293880
PlayListID                               : 687737873
GenreID                                  : 14
Vendor                                   : Universal:isrc:USUM71310782
Flavour                                  : 2:256
iTunMOVI                                 :  /  /  /  /   asset-info /    /     file-size /     7698033 /     flavor /     2:256 /    /  /
Audio
ID                                       : 1
Format                                   : AAC
Format/Info                              : Advanced Audio Codec
Format profile                           : LC
Codec ID                                 : 40
Duration                                 : 3mn 41s
Bit rate mode                            : Variable
Bit rate                                 : 256 Kbps
Maximum bit rate                         : 457 Kbps
Channel count                            : 2 channels
Channel positions                        : Front: L R
Sampling rate                            : 44.1 KHz
Compression mode                         : Lossy
Stream size                              : 6.77 MiB (92%)
Language                                 : English
Encoded date                             : UTC 1976-11-14 20:45:02
Tagged date                              : UTC 2013-11-04 18:03:32
General
Complete name                            : /Users/Kat/Downloads/Lady Gaga (2013) ARTPOP (AAC)/14 Gypsy.m4a
Format                                   : MPEG-4
Format profile                           : Apple audio with iTunes info
Codec ID                                 : M4A
File size                                : 8.37 MiB
Duration                                 : 4mn 8s
Overall bit rate mode                    : Variable
Overall bit rate                         : 282 Kbps
Album                                    : ARTPOP
Album/Performer                          : Lady Gaga
Part/Position                            : 1
Part/Total                               : 1
Track name                               : Gypsy
Track name/Position                      : 14
Track name/Total                         : 14
Performer                                : Lady Gaga
Genre                                    : Поп-музыка
ContentType                              : Music
Recorded date                            : UTC 2013-11-08 08:00:00
Tagged date                              : UTC 2013-11-11 16:19:40
Copyright                                : ℗ 2013 Interscope Records
Cover                                    : Yes
Rating                                   : None
AppleStoreCatalogID                      : 687738079
AlbumTitleID                             : 277293880
PlayListID                               : 687737873
GenreID                                  : 14
Vendor                                   : Universal:isrc:USUM71310783
Flavour                                  : 2:256
iTunMOVI                                 :  /  /  /  /   asset-info /    /     file-size /     8776672 /     flavor /     2:256 /    /  /
Audio
ID                                       : 1
Format                                   : AAC
Format/Info                              : Advanced Audio Codec
Format profile                           : LC
Codec ID                                 : 40
Duration                                 : 4mn 8s
Bit rate mode                            : Variable
Bit rate                                 : 256 Kbps
Maximum bit rate                         : 380 Kbps
Channel count                            : 2 channels
Channel positions                        : Front: L R
Sampling rate                            : 44.1 KHz
Compression mode                         : Lossy
Stream size                              : 7.80 MiB (93%)
Language                                 : English
Tagged date                              : UTC 2013-11-11 20:04:14
General
Complete name                            : /Users/Kat/Downloads/Lady Gaga (2013) ARTPOP (AAC)/15 Applause.m4a
Format                                   : MPEG-4
Format profile                           : Apple audio with iTunes info
Codec ID                                 : M4A
File size                                : 7.17 MiB
Duration                                 : 3mn 32s
Overall bit rate mode                    : Variable
Overall bit rate                         : 283 Kbps
Album                                    : ARTPOP
Album/Performer                          : Lady Gaga
Part/Position                            : 1
Part/Total                               : 1
Track name                               : Applause
Track name/Position                      : 15
Performer                                : Lady Gaga
Genre                                    : Поп-музыка
ContentType                              : Music
Recorded date                            : UTC 2013-11-08 08:00:00
Tagged date                              : UTC 2013-11-11 16:19:40
Copyright                                : ℗ 2013 Interscope Records
Cover                                    : Yes
Rating                                   : None
AppleStoreCatalogID                      : 687738080
AlbumTitleID                             : 277293880
PlayListID                               : 687737873
GenreID                                  : 14
Vendor                                   : Universal:isrc:USUM71310271
Flavour                                  : 2:256
iTunMOVI                                 :  /  /  /  /   asset-info /    /     file-size /     7515388 /     flavor /     2:256 /    /  /
Audio
ID                                       : 1
Format                                   : AAC
Format/Info                              : Advanced Audio Codec
Format profile                           : LC
Codec ID                                 : 40
Duration                                 : 3mn 32s
Bit rate mode                            : Variable
Bit rate                                 : 256 Kbps
Maximum bit rate                         : 298 Kbps
Channel count                            : 2 channels
Channel positions                        : Front: L R
Sampling rate                            : 44.1 KHz
Compression mode                         : Lossy
Stream size                              : 6.60 MiB (92%)
Language                                 : English
Tagged date                              : UTC 2013-11-04 18:03:35
* Digital Booklet - ARTPOP.pdf
Время раздачи: до 3-х первых скачавших
Other forum [Profile] [PM]

Dagel(tm)

Gender:

Longevity: 10 months 6 days

Posts: 30

Торрент-статистика

Post 25-Mar-2020 19:49 (after 6 years 4 months)

[Quote]

Кино, Видео и ТВ » Развлекательные телепередачи, юмор » Развлекательные телепередачи и шоу, приколы и юмор
UndegraundMen писал(а):
Жанр: Pop
Источник: iTunes
Лейбл: Interscope Records
Кодек: AAC
Битрейт: 256 кб/с
В той ли категории раздача?

_________________
так, по крайней мере, я чуВствую
Other forum [Profile] [PM]
Display posts from previous:    
Reply to topic

The time now is: Today 19:00

All times are GMT + 3 Hours



You cannot post new topics in this forum
You cannot reply to topics in this forum
You cannot edit your posts in this forum
You cannot delete your posts in this forum
You cannot vote in polls in this forum
You cannot attach files in this forum
You cannot download files in this forum