Сегодня идет свободное скачивание без начисления Download

Футурама / Futurama / Сезон: 7 / Серии: 1-13 из 26 (Мэтт Гроунинг / Matt Groening) [2012, Фантастика, комедия, WEB-DL] DVO 2x2 + Rus Sub НФСФ

Ответить на тему
 
Автор
Сообщение

Omen ®

Стаж: 5 лет

Сообщений: 190529

Торрент-статистика

Пост 11-Ноя-2013 21:08

[Цитировать]

Футурама
Сезон 7 (2x2)
Страна: США
Жанр: Фантастика, комедия
Продолжительность: 0:21:38
Год выпуска: 2012
Перевод: Профессиональный (двухголосый закадровый) Б. Быстров, И. Савина
Русские субтитры: есть
Автор идеи: Мэтт Гроунинг / Matt Groening
Режиссёр: Фрэнк Марино, Дуэйн Кэри-Хилл, Стивен Сандовал, Кристалл Чесни-Томпсон...
Роли озвучивали: Билли Уэст, Кейти Сэгал, Джон ДиМаджио, Фил ЛаМарр, Лоурэн Том и др.
Описание: Сериал начинается с того, что разносчик пиццы из Нью-Йорка Филипп Джей Фрай случайно, как это кажется на первый взгляд, был заморожен в криогенной камере ровно в 00 часов 00 минут 00 секунд 1 января 2000 года. Он был разморожен тысячу лет спустя, 31 декабря 2999 года, и обнаружил себя в городе будущего Нью-Нью-Йорке. Пытаясь избежать принудительного назначения на работу курьером, кем он и был в прошлой жизни, Фрай познакомился со своими будущими коллегами - Турангой Лилой, роботом Бендером и пра-пра-пра-…-пра-внучатым племянником Хьюбертом Фарнсвортом — маразматичным 160-летним гениальным ученым-склеротиком, который берёт их на работу в свою небольшую компанию «Межпланетный экспресс», занимающуюся межгалактическими грузоперевозками. «Межпланетный экспресс» — это маленький бизнес профессора, окупающий его гениальные, но иногда весьма сомнительные исследования и изобретения.
Список серий:
Сезон 7А (2012)
7ACV01 (S7E01) The Bots and the Bees
7ACV02 (S7E02) A Farewell to Arms
7ACV03 (S7E03) Decision 3012
7ACV04 (S7E04) The Thief of Baghead
7ACV05 (S7E05) Zapp Dingbat
7ACV06 (S7E06) The Butterjunk Effect
7ACV07 (S7E07) The Six Million Dollar Mon
7ACV08 (S7E08) Fun On a Bun
7ACV09 (S7E09) Free Will Hunting
7ACV10 (S7E10) Near-Death Wish
7ACV11 (S7E12) 31st Century Fox
7ACV12 (S7E11) Viva Mars Vegas
7ACV13 (S7E13) Naturama
Доп. информация: Аудиодорожки получены из потоков IPTV и DVB-S2, растянуты без сохранения тональности, синхронизированы с оригинальными дорожками. Выполнено шумопонижение по образцу шума. Добавлены концовки, заполнены пропуски. Исходный WEB-DL от CtrlHD
Спасибо!
#Antisnl# , Den.S-92 , Din Winchester - захват вещания 2х2
Семпл
Качество: WEB-DL
Формат: MKV
Видео: MPEG4/AVC (H264), 1280x720, 23,976fps, 3813kbps
Аудио 1: Русский, телеканал 2х2 | AC3, 48kHz, 2.0ch (dual mono), 192kbps
Аудио 2: Английский, оригинал | AC3, 48kHz, 5.1ch, 384kbps
Субтитры: Русские НФСФ, Английские БД Vol.7

Подробные технические данные

ОбщееУникальный идентификатор : 225141434436244630634260054844165167802 (0xA960A9BC5AA8270DBAD9074A3FFD9ABA)Полное имя : F:\Futurama.S7.2x2.WebDL.720p.rus.eng\7ACV01-The Bots and the Bees.720p.2x2.mkvФормат : MatroskaВерсия формата : Version 2Размер файла : 693 МбайтПродолжительность : 21 м.Общий поток : 4478 Кбит/секДата кодирования : UTC 2013-11-07 17:51:03Программа кодирования : mkvmerge v5.4.0 ('Piper') built on Mar 10 2012 13:34:39Библиотека кодирования : libebml v1.2.3 + libmatroska v1.3.0
ВидеоИдентификатор : 1Формат : AVCФормат/Информация : Advanced Video CodecПрофиль формата : High@L3.1Параметр CABAC формата : НетПараметр ReFrames формата : 2 кадраИдентификатор кодека : V_MPEG4/ISO/AVCПродолжительность : 21 м.Битрейт : 3813 Кбит/секШирина : 1280 пикселейВысота : 720 пикселейСоотношение сторон : 16:9Режим частоты кадров : ПостоянныйЧастота кадров : 23,976 кадра/секЦветовое пространство : YUVСубдискретизация насыщенности : 4:2:0Битовая глубина : 8 битТип развёртки : ПрогрессивнаяБит/(Пиксели*Кадры) : 0.173Размер потока : 590 Мбайт (85%)Заголовок : Futurama 7ACV01Язык : EnglishDefault : ДаForced : НетОсновные цвета : BT.709Характеристики трансфера : BT.709Коэффициенты матрицы : BT.709
Аудио #1Идентификатор : 2Формат : AC-3Формат/Информация : Audio Coding 3Расширение режима : CM (complete main)Параметр Endianness формата : BigИдентификатор кодека : A_AC3Продолжительность : 21 м.Вид битрейта : ПостоянныйБитрейт : 192 Кбит/секКаналы : 2 каналаРасположение каналов : Front: L RЧастота : 48,0 КГцБитовая глубина : 16 битМетод сжатия : С потерямиРазмер потока : 29,7 Мбайт (4%)Заголовок : 2x2Язык : RussianDefault : ДаForced : Нет
Аудио #2Идентификатор : 3Формат : AC-3Формат/Информация : Audio Coding 3Расширение режима : CM (complete main)Параметр Endianness формата : BigИдентификатор кодека : A_AC3Продолжительность : 21 м.Вид битрейта : ПостоянныйБитрейт : 384 Кбит/секКаналы : 6 каналовРасположение каналов : Front: L C R, Side: L R, LFEЧастота : 48,0 КГцБитовая глубина : 16 битМетод сжатия : С потерямиРазмер потока : 59,4 Мбайт (9%)Заголовок : OriginalЯзык : EnglishDefault : НетForced : Нет
Текст #1Идентификатор : 4Формат : UTF-8Идентификатор кодека : S_TEXT/UTF8Идентификатор кодека/Информация : UTF-8 Plain TextЗаголовок : ISFFЯзык : RussianDefault : НетForced : Нет
Текст #2Идентификатор : 5Формат : UTF-8Идентификатор кодека : S_TEXT/UTF8Идентификатор кодека/Информация : UTF-8 Plain TextЗаголовок : BluRayЯзык : EnglishDefault : НетForced : Нет

Скриншоты

Вне форума [Профиль] [ЛС]
Показать сообщения:    
Ответить на тему

Текущее время: Сегодня 01:45

Часовой пояс: GMT + 3



Вы не можете начинать темы
Вы не можете отвечать на сообщения
Вы не можете редактировать свои сообщения
Вы не можете удалять свои сообщения
Вы не можете голосовать в опросах
Вы не можете прикреплять файлы к сообщениям
Вы не можете скачивать файлы