Today is a free download without charge Download

Серия \"SOLOS: The Jazz Sessions\" - Gonzalo Rubalcaba (2010) DVD5

Reply to topic
 
Author
Message

UndegraundMen ®

Longevity: 6 years 10 months

Posts: 25145

Торрент-статистика

Post 09-Nov-2013 23:00

[Quote]

Серия "SOLOS: The Jazz Sessions" - Gonzalo Rubalcaba (2010) DVD5- Год выпуска: 2010
Жанр: Jazz, Piano
Описание фильма:
Треклист:
01. Prologo to el Maniceros
02. Supernova
03. Improvisation
04. Con Alma
05. Besame Mucho
06. Yolanda Anastasia
Описание:
Серия "SOLOS: The Jazz Sessions" выпускается Канадcкой Original Spin Media и состоит из трех сезонов. В каждом по тринадцать ДВД-дисков. Все диски состоят из полных треков, интервью и закулисных кадров. Разработанная для домашнего просмотра, SOLOS предлагает Вам место в первом ряду в зале с уникальными джазовыми исполнителями. Снято в потрясающем HDTV с множеством движущихся камер (здесь - ДВД формат).
Официальный сайт: http://www.g-rubalcaba.com/index.htm
Сайт проекта "SOLOS: The Jazz Sessions": http://www.solosjazz.com/a_gonzalo.php
Остальные релизы здесь: http://спам/?q=solos+jazz+sessions&w=title
Продолжительность: 00:50:37
Качество видео: DVD5
Видеокодек: MPEG-2
Битрейт видео: ~7754 kb/s
Размер кадра: 720x480 (16:9) NTSC
Аудиокодек: AC3 2.0
Битрейт аудио: 192 kb/s;
48KHz
Скриншоты:
         

Скриншоты меню и бонуса:

         

MediaInfo:

Общее
Полное имя : E:\Torrents\Solos\Gonzalo Rubalcaba - Solos - The Jazz Sessions\VIDEO_TS\VTS_01_1.VOB
Формат : MPEG-PS
Размер файла : 1024 Мбайт
Продолжительность : 17 м.
Общий поток : 8086 Кбит/сек
Видео
Идентификатор : 224 (0xE0)
Формат : MPEG Video
Версия формата : Version 2
Профиль формата : Main@Main
Параметр BVOP формата : Да
Параметр матрицы формата : По умолчанию
Параметр GOP формата : M=3, N=15
Продолжительность : 17 м.
Битрейт : 7754 Кбит/сек
Ширина : 720 пикселей
Высота : 480 пикселей
Соотношение сторон : 16:9
Частота кадров : 29,970 кадров/сек
Стандарт вещания : NTSC
Цветовое пространство : YUV
Субдискретизация насыщенности : 4:2:0
Битовая глубина : 8 бит
Тип развёртки : Чересстрочная
Порядок развёртки : Нижнее поле первое
Метод сжатия : С потерями
Бит/(Пиксели*Кадры) : 0.749
Временной код первого кадра : 00:00:00;00
Оригинал временного кода : Group of pictures header
Размер потока : 979 Мбайт (96%)
Аудио
Идентификатор : 189 (0xBD)-128 (0x80)
Формат : AC-3
Формат/Информация : Audio Coding 3
Расширение режима : CM (complete main)
Параметр Endianness формата : Big
Режим смешивания : DVD-Video
Продолжительность : 17 м.
Вид битрейта : Постоянный
Битрейт : 192 Кбит/сек
Каналы : 2 канала
Расположение каналов : Front: L R
Частота : 48,0 КГц
Битовая глубина : 16 бит
Метод сжатия : С потерями
Задержка видео : -67 мс.
Размер потока : 24,3 Мбайт (2%)
Меню
Время раздачи: 18:00 - 23:00
Other forum [Profile] [PM]
Similar theme
Forum Topic Author Torrent Replies Last Post
./templates/default/images/folder_dl.gif Медицина и Здоровье Книжная серия | Если врачи не помогли [7 книг. Обновляемая] (2015-2016) [FB2] moralis
1 | 0

0 | 1264

4

2016-03-15 22:28
moralis Latest
./templates/default/images/folder_dl.gif Приключения, детектив, боевик, триллер Agatha Christie. ЗОЛОТАЯ КОЛЛЕКЦИЯ (книжная серия) [2014-...., DjVu/EPUB/FB2/PDF, RUS] Omen
1 | 0

0 | 1467

7

2016-12-26 01:00
Omen Latest
./templates/default/images/folder_dl.gif Архив Книжная серия | Боевая фантастика [538 книги] (2005-2018) [FB2] Anonymous
1 | 0

1 | 2001

0

2019-06-11 19:09
Dracula Latest
./templates/default/images/folder_dl.gif Разножанровые коллекции книг и библиотеки Книжная серия | Юмор - это серьезно [14 книг] (2016-2018) [FB2] }{@R0N
1 | 0

0 | 863

2

2018-07-31 21:25
}{@R0N Latest
./templates/default/images/folder_dl.gif Разножанровые коллекции книг и библиотеки Книжная серия | «А. Сапковский с иллюстрациями Д. Гордеева» [8 книг] (2015-2017) [FB2] }{@R0N
1 | 0

0 | 1220

4

2019-01-14 20:27
}{@R0N Latest
./templates/default/images/folder_dl.gif Разножанровые коллекции книг и библиотеки Книжная серия | Зарубежная классика [164 книги] (1998-2019) [FB2] }{@R0N
1 | 0

0 | 615

0

2019-06-19 17:17
}{@R0N Latest
./templates/default/images/folder_dl.gif Фантастика, фэнтези, ужасы, мистика Книжная серия | Академия магии [107 книг.] (2014-2019) [FB2] Anonymous
2 | 0

0 | 550

0

2019-06-21 23:52
Anonymous Latest
./templates/default/images/folder_dl.gif Фантастика, фэнтези, ужасы, мистика Книжная серия | «Вселенная S-T-I-K-S» [63 книги] [Обновляемая] (2016-2019) [FB2] Anonymous
1 | 0

0 | 613

0

2019-06-26 21:03
Anonymous Latest
Display posts from previous:    
Reply to topic

The time now is: Today 08:13

All times are GMT + 3 Hours



You cannot post new topics in this forum
You cannot reply to topics in this forum
You cannot edit your posts in this forum
You cannot delete your posts in this forum
You cannot vote in polls in this forum
You cannot attach files in this forum
You cannot download files in this forum