Сегодня идет свободное скачивание без начисления Download

С чистого холста / Инспектор Клот / A Touch of Cloth (2013) WEB-DLRip (Сезон 2, Серии 2 из 2) ViruseProject

Ответить на тему
 
Автор
Сообщение

UndegraundMen ®

Стаж: 5 лет 7 месяцев

Сообщений: 25860

Торрент-статистика

Пост 09-Ноя-2013 23:01

[Цитировать]

С чистого холста / Инспектор Клот / A Touch of Cloth (2013) WEB-DLRip (Сезон 2, Серии 2 из 2) ViruseProject- Год выпуска: 2013
Страна: Великобритания
Жанр: боевик, комедия
Перевод: Многоголосый закадровый, любительский - ViruseProject
Автор перевода: notabenoid
Озвучка: Елена Емельянова, Марина Видякина, Татьяна Романовская, Дмитрий Кравченко, Алекс Викке, Алексей Кизуб, Игорь Головин
Монтаж, сведение звука, подготовка видео: Виталий Емельянов

Режиссер: Джим О’Хенлон
Актеры: Джон Ханна, Сюранн Джонс, Джулиан Райнд-Татт, Навин Чоудхри, Адриан Бауэр, Дэйзи Бомонт, Ракель Кэссиди, Тео Барклем-Биггз, Брайан Кокс, Тодд Кэрти, Кейт Флитвуд и др.
Описание фильма:
Сериал основан на рассказе Бориса Старлинга.
Детектив — инспектор Джэк Клот — сильнопьющий одиночка, с головой окунается в работу после таинственной смерти жены. У преследуемого приведениями Клота своеобразный напарник — отважная сержант Анна Олдман.
Мини-сериал, пародирующий многие британские криминальные драмы, снятые за последнее десятилетие.
Продолжительность: ~00:44:00 серия
Качество видео: WEB-DLRip
Видеокодек: Xvid
Формат: AVI
Битрейт видео: ~1569 kb/s
Размер кадра: 720х400 (16:9)
Аудио Rus: (MPEG Layer 3, 48,0 kHz, 2 ch, 192 kb/s) - многоголосый закадровый Сэмпл

MediaInfo

Общее
Полное имя : D:\Инспектор Клот (Сезон 2) A Touch of Cloth (2013) WEB-DLRip - ViruseProject\A.Touch.of.Cloth.S02E01..avi
Формат : AVI
Формат/Информация : Audio Video Interleave
Размер файла : 564 Мбайт
Продолжительность : 44 м.
Общий поток : 1771 Кбит/сек
Программа кодирования : VirtualDubMod 1.5.10.2 (build 2540/release)
Библиотека кодирования : VirtualDubMod build 2540/release
Видео
Идентификатор : 0
Формат : MPEG-4 Visual
Профиль формата : Advanced Simple@L5
Параметр BVOP формата : 1
Параметр QPel формата : Нет
Параметр GMC формата : Без точки перехода
Параметр матрицы формата : Default (MPEG)
Идентификатор кодека : XVID
Идентификатор кодека/Подсказка : XviD
Продолжительность : 44 м.
Битрейт : 1569 Кбит/сек
Ширина : 720 пикселей
Высота : 400 пикселей
Соотношение сторон : 16:9
Частота кадров : 25,000 кадров/сек
Цветовое пространство : YUV
Субдискретизация насыщенности : 4:2:0
Битовая глубина : 8 бит
Тип развёртки : Прогрессивная
Метод сжатия : С потерями
Бит/(Пиксели*Кадры) : 0.218
Размер потока : 499 Мбайт (89%)
Библиотека кодирования : XviD 1.2.1 (UTC 2008-12-04)
Аудио
Идентификатор : 1
Формат : MPEG Audio
Версия формата : Version 1
Профиль формата : Layer 3
Идентификатор кодека : 55
Идентификатор кодека/Подсказка : MP3
Продолжительность : 44 м.
Вид битрейта : Постоянный
Битрейт : 192 Кбит/сек
Каналы : 2 канала
Частота : 48,0 КГц
Метод сжатия : С потерями
Размер потока : 61,1 Мбайт (11%)
Выравнивание : Разделение по промежуткам
Продолжительность промежутка : 40 мс. (1,00 видеокадр)
Время предзагрузки промежутка : 500 мс.
Скриншоты:
         
Вне форума [Профиль] [ЛС]
Показать сообщения:    
Ответить на тему

Текущее время: Сегодня 11:04

Часовой пояс: GMT + 3



Вы не можете начинать темы
Вы не можете отвечать на сообщения
Вы не можете редактировать свои сообщения
Вы не можете удалять свои сообщения
Вы не можете голосовать в опросах
Вы не можете прикреплять файлы к сообщениям
Вы не можете скачивать файлы