Сегодня идет свободное скачивание без начисления Download

Комиссар Рекс (2 сезон 1-15 серия) / Kommissar Rex (Staffel 2) (Пит Эриель, Оливер Хиршбигель, Бодо Фюрнайзен, Ганс Вернер, Вольфганг Дикманн) [1995-1996, Боевик/Криминал/Детектив, DVDRip]

Ответить на тему
 
Автор
Сообщение

JVC ®

Пол:

Стаж: 7 лет 7 месяцев

Сообщений: 341

Торрент-статистика

Пост 29-Окт-2011 19:28

[Цитировать]

Комиссар Рекс (2 сезон 1-15 серия) / Kommissar Rex (Staffel 2)
Год выпуска: 1995-1996
Страна: Австрия/Германия
Жанр: Боевик/Криминал/Детектив
Продолжительность: 00:45:00
Перевод: Профессиональный (многоголосый закадровый), Немецкий - оригинал
Русские субтитры: нет
Субтитры: Отсутствуют
Режиссёр: Пит Эриель, Оливер Хиршбигель, Бодо Фюрнайзен, Ганс Вернер, Вольфганг Дикманн
В ролях: Тобиас Моретти, Карл Маркович, Вольф Бахофнер, Герхард Цеманн, Фриц Мюллер
Описание: Замечательный полицейский пес Рекс заставляет трепетать преступное сообщество Вены. Он умен, красив, хитер, обожает воровать булочки с колбасой и предан своему хозяину - легендарному комиссару полиции, таланливому сыщику, и просто покорителю женских сердец Рихарду Мозеру.
Качество: DVDRip
Формат: AVI
Видео кодек: XviD, DivX
Аудио кодек: MP3
Видео: XviD build 50, 640x480 (1.33:1), 25 fps, 876 kbps avg, 0.11 bit/pixel
Видео: DivX Codec 6.8, 640x480 (1.33:1), 25 fps, 1014 kbps avg, 0.13 bit/pixel [По Венским крышам, Последнее дело Штокингера]
Аудио 1: MPEG Layer 3, 48 kHz, 2 ch, 256.00 kbps avg [Russian]
Аудио 2: MPEG Layer 3, 48 kHz, 2 ch, 256.00 kbps avg [German]

MI

General
Complete name : D:\Kommissar.Rex.Staffel.2.DVDRip\Kommissar.Rex.S02E09.DVDRip.XviD-PBP.avi
Format : AVI
Format/Info : Audio Video Interleave
File size : 468 MiB
Duration : 46mn 30s
Overall bit rate : 1 408 Kbps
Writing application : VirtualDubMod 1.5.10.2 (build 2542/release)
Writing library : VirtualDubMod build 2542/release
Video
ID : 0
Format : MPEG-4 Visual
Format profile : Advanced Simple@L5
Format settings, BVOP : 1
Format settings, QPel : No
Format settings, GMC : No warppoints
Format settings, Matrix : Custom
Codec ID : XVID
Codec ID/Hint : XviD
Duration : 46mn 30s
Bit rate : 881 Kbps
Width : 640 pixels
Height : 480 pixels
Display aspect ratio : 4:3
Frame rate : 25.000 fps
Color space : YUV
Chroma subsampling : 4:2:0
Bit depth : 8 bits
Scan type : Progressive
Compression mode : Lossy
Bits/(Pixel*Frame) : 0.115
Stream size : 293 MiB (63%)
Writing library : XviD 1.2.1 (UTC 2008-12-04)
Audio #1
ID : 1
Format : MPEG Audio
Format version : Version 1
Format profile : Layer 3
Mode : Joint stereo
Codec ID : 55
Codec ID/Hint : MP3
Duration : 46mn 29s
Bit rate mode : Constant
Bit rate : 256 Kbps
Channel(s) : 2 channels
Sampling rate : 48.0 KHz
Compression mode : Lossy
Stream size : 85.1 MiB (18%)
Alignment : Split accross interleaves
Interleave, duration : 40 ms (1.00 video frame)
Interleave, preload duration : 500 ms
Audio #2
ID : 2
Format : MPEG Audio
Format version : Version 1
Format profile : Layer 3
Mode : Joint stereo
Mode extension : MS Stereo
Codec ID : 55
Codec ID/Hint : MP3
Duration : 46mn 29s
Bit rate mode : Constant
Bit rate : 256 Kbps
Channel(s) : 2 channels
Sampling rate : 48.0 KHz
Compression mode : Lossy
Stream size : 85.1 MiB (18%)
Alignment : Aligned on interleaves
Interleave, duration : 40 ms (1.00 video frame)
Interleave, preload duration : 504 ms
Writing library : LAME3.97

Скриншоты

    

_________________
Вне форума [Профиль] [ЛС]
Показать сообщения:    
Ответить на тему

Текущее время: Сегодня 14:39

Часовой пояс: GMT + 3



Вы не можете начинать темы
Вы не можете отвечать на сообщения
Вы не можете редактировать свои сообщения
Вы не можете удалять свои сообщения
Вы не можете голосовать в опросах
Вы не можете прикреплять файлы к сообщениям
Вы не можете скачивать файлы