Сегодня идет свободное скачивание без начисления Download

Заложники / Hostages (2013) WEB-DLRip (MVO (ViruseProject) [Сезон 1] [6 из 15] [Русский]

Ответить на тему
 
Автор
Сообщение

UndegraundMen ®

Стаж: 5 лет 6 месяцев

Сообщений: 25860

Торрент-статистика

Пост 05-Ноя-2013 23:00

[Цитировать]

Заложники / Hostages (2013) WEB-DLRip [Сезон 1, 6 из 15] [Русский]- Год выпуска: 2013
Жанр: Триллер, Драма
Перевод: Многоголосый закадровый, любительский
Язык: Русский
Озвучка / Автор перевода: ViruseProject
Вид субтитров: Отсутствуют
Релиз группа: ViruseProject

Дата мировой премьеры: 23 сентября 2013
Режиссер: Генри Брончтейн, Джейсон Энслер, Рассел Ли Файн, Карен Гавиола, Джеффри Начманофф, Дэвид Фон Энкен
Актеры: Тони Коллетт, Дилан МакДермотт, Тейт Донован, Куинн Шепард, Матеус Уорд, Билли Браун, Сандрин Холт, Риз Койро, Джеймс Нафтон, Тайлер Эллиот Бурк
Описание фильма:
Заложники — остросюжетный триллер, рассказывающий о докторе Эллен Сандерс, первоклассном хирурге, втянутой в политический заговор после того, как ее семью берет в заложники вышедший из-под контроля агент ФБР Дункан Карлайл. Карлайл приказывает ей убить президента, когда она будет проводить над ним операцию. Жизнь семьи Эллен находится под угрозой и Эллен предстоит сделать непосильный выбор, чтобы спасти своего мужа, дочку и сына. Ставки между Эллен и Карлайлом высоки как никогда, а грань между правильным и неправильным никогда не была столь размытой.
Продолжительность: 6 x ~00:45
Качество видео: WEB-DLRip
Сэмпл: Скачать
Видеокодек: Xvid
Битрейт видео: ~1483 kbps
Размер кадра: 720x400
Аудиокодек: MP3
Битрейт аудио: 192.00 kbps avg

MediaInfo

E:\ОЗВУЧКА\СЕРИАЛЫ\Hostages.S01.ViruseProject\Hostages.S01.ViruseProject\Hostages.S01E01.ViruseProject.avi
General
Complete name : E:\ОЗВУЧКА\СЕРИАЛЫ\Hostages.S01.ViruseProject\Hostages.S01.ViruseProject\Hostages.S01E01.ViruseProject.avi
Format : AVI
Format/Info : Audio Video Interleave
File size : 523 MiB
Duration : 43mn 22s
Overall bit rate : 1 685 Kbps
Writing application : VirtualDubMod 1.5.10.2 (build 2540/release)
Writing library : VirtualDubMod build 2540/release
Video #0
ID : 0
Format : MPEG-4 Visual
Format profile : Advanced Simple@L5
Format settings, BVOP : 1
Format settings, QPel : No
Format settings, GMC : No warppoints
Format settings, Matrix : Default (MPEG)
Codec ID : XVID
Codec ID/Hint : XviD
Duration : 43mn 22s
Bit rate : 1 484 Kbps
Width : 720 pixels
Height : 400 pixels
Display aspect ratio : 16:9
Frame rate : 23.976 fps
Color space : YUV
Chroma subsampling : 4:2:0
Bit depth : 8 bits
Scan type : Progressive
Compression mode : Lossy
Bits/(Pixel*Frame) : 0.215
Stream size : 460 MiB (88%)
Writing library : XviD 1.2.1 (UTC 2008-12-04)
Audio #1
ID : 1
Format : MPEG Audio
Format version : Version 1
Format profile : Layer 3
Mode : Joint stereo
Mode extension : MS Stereo
Codec ID : 55
Codec ID/Hint : MP3
Duration : 43mn 22s
Bit rate mode : Constant
Bit rate : 192 Kbps
Channel(s) : 2 channels
Sampling rate : 48.0 KHz
Compression mode : Lossy
Stream size : 59.6 MiB (11%)
Alignment : Split accross interleaves
Interleave, duration : 42 ms (1.00 video frame)
Interleave, preload duration : 500 ms
Скриншоты:

Время раздачи: 24/7
Вне форума [Профиль] [ЛС]
Показать сообщения:    
Ответить на тему

Текущее время: Сегодня 19:06

Часовой пояс: GMT + 3



Вы не можете начинать темы
Вы не можете отвечать на сообщения
Вы не можете редактировать свои сообщения
Вы не можете удалять свои сообщения
Вы не можете голосовать в опросах
Вы не можете прикреплять файлы к сообщениям
Вы не можете скачивать файлы