Сегодня идет свободное скачивание без начисления Download

Трансформеры: Трилогия / Transformers: Trilogy (Майкл Бэй) [2007 г., 2009 г., 2011 г., Приключения, Боевик, Триллер, Фантастика, BDRip 720p] + Доп. Материалы

Ответить на тему
 
Автор
Сообщение

zeke ®

Пол:

Стаж: 7 лет 6 месяцев

Сообщений: 96

Торрент-статистика

Пост 23-Окт-2011 20:36

[Цитировать]

Трансформеры: Трилогия / Transformers: Trilogy
& Дополнительные материалы

Трансформеры / Transformers (2007)

Трансформеры / Transformers
Год выхода: 2007
Жанр: Приключения, Боевик, Триллер, Фантастика
Режиссер: Майкл Бэй
Страна: США
Продолжительность: 02:23:27
Перевод: Профессиональный (полное дублирование) |Blu-ray CEE|
В ролях: Шайа ЛаБаф, Меган Фокс, Джош Дюамель, Рэйчел Тейлор, Тайрез Гибсон, Джон Войт
О фильме: В течение многих столетий две расы роботов-инопланетян — Автоботы и Десептиконы — вели войну, ставкой в которой была судьба Bселенной. И вот война докатилась до Земли. В то время, когда силы зла ищут ключ к верховной власти, наш последний шанс на спасение находится в руках юного землянина. Единственное, что стоит между несущими зло Десептиконами и высшей властью — это ключ, находящийся в руках простого парнишки. Обычный подросток, Сэм Уитвикки озабочен повседневными хлопотами — школа, друзья, машины, девочки. Не ведая о том, что он является последним шансом человечества на спасение, Сэм вместе со своей подругой Микаэлой оказываются вовлеченными в противостояние Автоботов и Десептиконов. Только тогда Сэм понимает истинное значение семейного девиза Уитвикки — «без жертв нет победы!»
Формат: MKV
Качество: BDRip 720p
Видео кодек: H.264
Аудио кодек: AC3
Видео: H.264, 7 885 Kbps, 1 280x528 pix, 23.976 fps, High L4.1
Аудио:
AC3, 6 channels, 640 kbps, 16 bits, 48.0 KHz
AC3, 6 channels, 640 kbps, 16 bits, 48.0 KHz
Субтитры:
Русские
Английские

MediaInfo

General
Unique ID : 177830443342625753814628480818301612733 (0x85C8E5C82D89A740AA695C98489BB2BD)
Complete name : H:\Трансформеры [BDRip 720p]\Трансформеры.mkv
Format : Matroska
Format version : Version 2
File size : 9.18 GiB
Duration : 2h 23mn
Overall bit rate : 9 162 Kbps
Encoded date : UTC 2011-10-07 10:41:54
Writing application : mkvmerge v5.0.0 ('Die Wahre Liebe') built on Sep 25 2011 20:33:49
Writing library : libebml v1.2.2 + libmatroska v1.3.0
Video
ID : 3
Format : AVC
Format/Info : Advanced Video Codec
Format profile : High L4.1
Format settings, CABAC : Yes
Format settings, ReFrames : 5 frames
Muxing mode : Header stripping
Codec ID : V_MPEG4/ISO/AVC
Duration : 2h 23mn
Bit rate : 7 885 Kbps
Width : 1 280 pixels
Height : 528 pixels
Display aspect ratio : 2.40:1
Frame rate : 23.976 fps
Color space : YUV
Chroma subsampling : 4:2:0
Bit depth : 8 bits
Scan type : Progressive
Bits/(Pixel*Frame) : 0.487
Stream size : 7.72 GiB (84%)
Title : for freeisland
Writing library : x264 core 116 r2074 2641b9e
Encoding settings : cabac=1 / ref=5 / deblock=1:-1:-1 / analyse=0x3:0x133 / me=hex / subme=8 / psy=1 / psy_rd=1.00:0.15 / mixed_ref=1 / me_range=16 / chroma_me=1 / trellis=1 / 8x8dct=1 / cqm=0 / deadzone=21,11 / fast_pskip=1 / chroma_qp_offset=-3 / threads=4 / sliced_threads=0 / nr=0 / decimate=1 / interlaced=0 / bluray_compat=0 / constrained_intra=0 / bframes=9 / b_pyramid=2 / b_adapt=2 / b_bias=0 / direct=3 / weightb=1 / open_gop=0 / weightp=2 / keyint=250 / keyint_min=23 / scenecut=40 / intra_refresh=0 / rc_lookahead=50 / rc=2pass / mbtree=0 / bitrate=7885 / ratetol=1.0 / qcomp=1.00 / qpmin=0 / qpmax=69 / qpstep=4 / cplxblur=20.0 / qblur=0.5 / vbv_maxrate=50000 / vbv_bufsize=50000 / nal_hrd=none / ip_ratio=1.40 / pb_ratio=1.30 / aq=1:1.00
Language : English
Color primaries : BT.709-5, BT.1361, IEC 61966-2-4, SMPTE RP177
Transfer characteristics : BT.709-5, BT.1361
Matrix coefficients : BT.709-5, BT.1361, IEC 61966-2-4 709, SMPTE RP177
Audio #1
ID : 1
Format : AC-3
Format/Info : Audio Coding 3
Mode extension : CM (complete main)
Muxing mode : Header stripping
Codec ID : A_AC3
Duration : 2h 23mn
Bit rate mode : Constant
Bit rate : 640 Kbps
Channel(s) : 6 channels
Channel positions : Front: L C R, Side: L R, LFE
Sampling rate : 48.0 KHz
Bit depth : 16 bits
Compression mode : Lossy
Stream size : 657 MiB (7%)
Title : AC3, 6 channels, 640 kbps, 16 bits, 48.0 KHz
Language : English
Audio #2
ID : 2
Format : AC-3
Format/Info : Audio Coding 3
Mode extension : CM (complete main)
Muxing mode : Header stripping
Codec ID : A_AC3
Duration : 2h 23mn
Bit rate mode : Constant
Bit rate : 640 Kbps
Channel(s) : 6 channels
Channel positions : Front: L C R, Side: L R, LFE
Sampling rate : 48.0 KHz
Bit depth : 16 bits
Compression mode : Lossy
Stream size : 657 MiB (7%)
Title : AC3, 6 channels, 640 kbps, 16 bits, 48.0 KHz
Language : Russian
Text #1
ID : 4
Format : UTF-8
Codec ID : S_TEXT/UTF8
Codec ID/Info : UTF-8 Plain Text
Title : Надписи и пр.
Language : Russian
Text #2
ID : 5
Format : UTF-8
Codec ID : S_TEXT/UTF8
Codec ID/Info : UTF-8 Plain Text
Title : Blu-ray
Language : Russian
Text #3
ID : 6
Format : ASS
Codec ID : S_TEXT/ASS
Codec ID/Info : Advanced Sub Station Alpha
Compression mode : Lossless
Language : English

Скриншоты

       

Трансформеры: Месть падших / Transformers: Revenge of the Fallen (2009)

Трансформеры: Месть падших / Transformers: Revenge of the Fallen
Год выхода: 2009
Жанр: Фантастика, боевик, приключения
Режиссер: Майкл Бэй
Страна: США
Продолжительность: 02:29:53
Перевод: Профессиональный (полное дублирование) |Blu-ray CEE|
В ролях: Шайа ЛаБаф, Меган Фокс, Джош Дюамель, Тайриз Гибсон, Джон Туртурро, Рамон Родригез, Кевин Данн, Джули Уайт, Изабель Лукас, Джон Бенжамин Хикки
О фильме: Битва на Земле закончена, но битва во Вселенной только начинается. После возвращения на Кибертрон Старскрим берет в свои руки командование над Десептиконами и решает вернуться на Землю. В это же время Автоботы, уверенные, что мир был возможен, обнаруживают, что тело Мегатрона украдено Скорпиноксом. Враг набирает новую силу, и на сторону зла становится кто-то еще более могущественный. Человечеству предстоит противостоять тому, чего оно доселе не знало...
Формат: MKV
Качество: BDRip 720p
Видео кодек: H.264
Аудио кодек: AC3
Видео: H.264, 7 893 Kbps, 1 280x528 pix, 23.976 fps, High L4.1
Аудио:
AC3, 6 channels, 640 kbps, 16 bits, 48.0 KHz
AC3, 6 channels, 640 kbps, 16 bits, 48.0 KHz
Субтитры:
Русские
Английские

MediaInfo

General
Unique ID : 232590020783050899198803865181267008953 (0xAEFB356571D57AFCB299427BDDF19DB9)
Complete name : H:\Трансформеры [BDRip 720p]\Трансформеры 2.mkv
Format : Matroska
Format version : Version 2
File size : 9.60 GiB
Duration : 2h 29mn
Overall bit rate : 9 171 Kbps
Encoded date : UTC 2011-10-07 10:15:25
Writing application : mkvmerge v5.0.0 ('Die Wahre Liebe') built on Sep 25 2011 20:33:49
Writing library : libebml v1.2.2 + libmatroska v1.3.0
Video
ID : 1
Format : AVC
Format/Info : Advanced Video Codec
Format profile : High L4.1
Format settings, CABAC : Yes
Format settings, ReFrames : 5 frames
Muxing mode : Header stripping
Codec ID : V_MPEG4/ISO/AVC
Duration : 2h 29mn
Bit rate : 7 893 Kbps
Width : 1 280 pixels
Height : 528 pixels
Display aspect ratio : 2.40:1
Frame rate : 23.976 fps
Color space : YUV
Chroma subsampling : 4:2:0
Bit depth : 8 bits
Scan type : Progressive
Bits/(Pixel*Frame) : 0.487
Stream size : 8.07 GiB (84%)
Title : for freeisland
Writing library : x264 core 116 r2074 2641b9e
Encoding settings : cabac=1 / ref=5 / deblock=1:-1:-1 / analyse=0x3:0x133 / me=hex / subme=8 / psy=1 / psy_rd=1.00:0.15 / mixed_ref=1 / me_range=16 / chroma_me=1 / trellis=1 / 8x8dct=1 / cqm=0 / deadzone=21,11 / fast_pskip=1 / chroma_qp_offset=-3 / threads=4 / sliced_threads=0 / nr=0 / decimate=1 / interlaced=0 / bluray_compat=0 / constrained_intra=0 / bframes=8 / b_pyramid=2 / b_adapt=2 / b_bias=0 / direct=3 / weightb=1 / open_gop=0 / weightp=2 / keyint=250 / keyint_min=23 / scenecut=40 / intra_refresh=0 / rc_lookahead=50 / rc=2pass / mbtree=0 / bitrate=7893 / ratetol=1.0 / qcomp=1.00 / qpmin=0 / qpmax=69 / qpstep=4 / cplxblur=20.0 / qblur=0.5 / vbv_maxrate=50000 / vbv_bufsize=50000 / nal_hrd=none / ip_ratio=1.40 / pb_ratio=1.30 / aq=1:1.00
Language : English
Color primaries : BT.709-5, BT.1361, IEC 61966-2-4, SMPTE RP177
Transfer characteristics : BT.709-5, BT.1361
Matrix coefficients : BT.709-5, BT.1361, IEC 61966-2-4 709, SMPTE RP177
Audio #1
ID : 2
Format : AC-3
Format/Info : Audio Coding 3
Mode extension : CM (complete main)
Muxing mode : Header stripping
Codec ID : A_AC3
Duration : 2h 29mn
Bit rate mode : Constant
Bit rate : 640 Kbps
Channel(s) : 6 channels
Channel positions : Front: L C R, Side: L R, LFE
Sampling rate : 48.0 KHz
Bit depth : 16 bits
Compression mode : Lossy
Stream size : 686 MiB (7%)
Title : AC3, 6 channels, 640 kbps, 16 bits, 48.0 KHz
Language : Russian
Audio #2
ID : 3
Format : AC-3
Format/Info : Audio Coding 3
Mode extension : CM (complete main)
Muxing mode : Header stripping
Codec ID : A_AC3
Duration : 2h 29mn
Bit rate mode : Constant
Bit rate : 640 Kbps
Channel(s) : 6 channels
Channel positions : Front: L C R, Side: L R, LFE
Sampling rate : 48.0 KHz
Bit depth : 16 bits
Compression mode : Lossy
Stream size : 686 MiB (7%)
Title : AC3, 6 channels, 640 kbps, 16 bits, 48.0 KHz
Language : English
Text #1
ID : 4
Format : UTF-8
Codec ID : S_TEXT/UTF8
Codec ID/Info : UTF-8 Plain Text
Title : Надписи и пр.
Language : Russian
Text #2
ID : 5
Format : UTF-8
Codec ID : S_TEXT/UTF8
Codec ID/Info : UTF-8 Plain Text
Title : Blu-ray
Language : Russian
Text #3
ID : 6
Format : ASS
Codec ID : S_TEXT/ASS
Codec ID/Info : Advanced Sub Station Alpha
Compression mode : Lossless
Language : English

Скриншоты

     

Трансформеры 3: Тёмная сторона Луны / Transformers: Dark of the Moon (2011)

Трансформеры 3: Тёмная сторона Луны / Transformers: Dark of the Moon
Год выхода: 2011
Жанр: Фантастика, боевик, приключения
Режиссер: Майкл Бэй
Выпущено: США
Продолжительность: 02:34:23
Перевод: Профессиональный (полное дублирование) |Blu-ray CEE|
В ролях: Шайа ЛаБаф, Джош Дюамель, Джон Туртурро, Тайриз Гибсон, Роузи Хантингтон-Уайтли, Патрик Демпси, Кевин Данн, Джули Уайт, Джон Малкович, Питер Каллен
О фильме: Для наших героев наступили печальные будни: Сэм потерял Микаэлу, правительство выпускает законодательный акт о выселении Автоботов с Земли, а пока Мегатрон скрывается после позорного поражения Фоллена, десептикон Шокуэйв, правитель Кибертрона, готовится нанести визит нашей планете с совсем недобрыми намерениями. Действие заключительной части трилогии на этот раз охватит не только Землю, но и Луну, темная сторона которой хранит не менее темные тайны.
Формат: MKV
Качество: BDRip 720p
Видео кодек: H.264
Аудио кодек: AC3
Видео: H.264, 7 893 Kbps, 1 280x528 pix, 23.976 fps, High L4.1
Аудио:
AC3, 6 channels, 640 kbps, 16 bits, 48.0 KHz
AC3, 6 channels, 640 kbps, 16 bits, 48.0 KHz
Субтитры:
Русские
Английские

MediaInfo

General
Unique ID : 232725296589695600585378607018643069374 (0xAF1543022B51730EACE9534D013499BE)
Complete name : H:\Трансформеры [BDRip 720p]\Трансформеры 3.mkv
Format : Matroska
Format version : Version 2
File size : 9.86 GiB
Duration : 2h 34mn
Overall bit rate : 9 139 Kbps
Encoded date : UTC 2011-10-23 15:27:31
Writing application : mkvmerge v5.0.0 ('Die Wahre Liebe') built on Sep 25 2011 20:33:49
Writing library : libebml v1.2.2 + libmatroska v1.3.0
Video
ID : 1
Format : AVC
Format/Info : Advanced Video Codec
Format profile : High L4.1
Format settings, CABAC : Yes
Format settings, ReFrames : 5 frames
Muxing mode : Header stripping
Codec ID : V_MPEG4/ISO/AVC
Duration : 2h 34mn
Bit rate : 7 864 Kbps
Width : 1 280 pixels
Height : 528 pixels
Display aspect ratio : 2.40:1
Frame rate : 23.976 fps
Color space : YUV
Chroma subsampling : 4:2:0
Bit depth : 8 bits
Scan type : Progressive
Bits/(Pixel*Frame) : 0.485
Stream size : 8.28 GiB (84%)
Title : for freeisland
Writing library : x264 core 116 r2074 2641b9e
Encoding settings : cabac=1 / ref=5 / deblock=1:-1:-1 / analyse=0x3:0x133 / me=hex / subme=8 / psy=1 / psy_rd=1.00:0.15 / mixed_ref=1 / me_range=16 / chroma_me=1 / trellis=1 / 8x8dct=1 / cqm=0 / deadzone=21,11 / fast_pskip=1 / chroma_qp_offset=-3 / threads=4 / sliced_threads=0 / nr=0 / decimate=1 / interlaced=0 / bluray_compat=0 / constrained_intra=0 / bframes=11 / b_pyramid=2 / b_adapt=2 / b_bias=0 / direct=3 / weightb=1 / open_gop=0 / weightp=2 / keyint=250 / keyint_min=23 / scenecut=40 / intra_refresh=0 / rc_lookahead=50 / rc=2pass / mbtree=0 / bitrate=7864 / ratetol=1.0 / qcomp=1.00 / qpmin=0 / qpmax=69 / qpstep=4 / cplxblur=20.0 / qblur=0.5 / vbv_maxrate=50000 / vbv_bufsize=50000 / nal_hrd=none / ip_ratio=1.40 / pb_ratio=1.30 / aq=1:1.00
Language : English
Color primaries : BT.709-5, BT.1361, IEC 61966-2-4, SMPTE RP177
Transfer characteristics : BT.709-5, BT.1361
Matrix coefficients : BT.709-5, BT.1361, IEC 61966-2-4 709, SMPTE RP177
Audio #1
ID : 2
Format : AC-3
Format/Info : Audio Coding 3
Mode extension : CM (complete main)
Muxing mode : Header stripping
Codec ID : A_AC3
Duration : 2h 34mn
Bit rate mode : Constant
Bit rate : 640 Kbps
Channel(s) : 6 channels
Channel positions : Front: L C R, Side: L R, LFE
Sampling rate : 48.0 KHz
Bit depth : 16 bits
Compression mode : Lossy
Stream size : 707 MiB (7%)
Title : AC3, 6 channels, 640 kbps, 16 bits, 48.0 KHz
Language : Russian
Audio #2
ID : 3
Format : AC-3
Format/Info : Audio Coding 3
Mode extension : CM (complete main)
Muxing mode : Header stripping
Codec ID : A_AC3
Duration : 2h 34mn
Bit rate mode : Constant
Bit rate : 640 Kbps
Channel(s) : 6 channels
Channel positions : Front: L C R, Side: L R, LFE
Sampling rate : 48.0 KHz
Bit depth : 16 bits
Compression mode : Lossy
Stream size : 707 MiB (7%)
Title : AC3, 6 channels, 640 kbps, 16 bits, 48.0 KHz
Language : English
Text #1
ID : 4
Format : UTF-8
Codec ID : S_TEXT/UTF8
Codec ID/Info : UTF-8 Plain Text
Language : Russian
Text #2
ID : 5
Format : UTF-8
Codec ID : S_TEXT/UTF8
Codec ID/Info : UTF-8 Plain Text
Language : English

Скриншоты

         

Трансформеры 2 (Дополнительные материалы)

Формат: MKV
Качество: BDRip 720p
Видео кодек: H.264
Аудио кодек: AC3
Видео: H.264, 7 535 Kbps, 1 280x528 pix, 23.976 fps, High L4.1
Аудио: AC3, 2 channels, 224 kbps, 16 bits, 48.0 KHz
Субтитры:
Русские
Английские

MediaInfo

General
Unique ID : 252982919101275773410995513445570146986 (0xBE52BCE9153E56FABFFDB3BAD69D72AA)
Complete name : H:\Трансформеры [BDRip 720p]\Трансформеры 2 (Дополнительные материалы).mkv
Format : Matroska
Format version : Version 2
File size : 7.31 GiB
Duration : 2h 14mn
Overall bit rate : 7 774 Kbps
Encoded date : UTC 2011-10-07 09:51:29
Writing application : mkvmerge v5.0.0 ('Die Wahre Liebe') built on Sep 25 2011 20:33:49
Writing library : libebml v1.2.2 + libmatroska v1.3.0
Video
ID : 1
Format : AVC
Format/Info : Advanced Video Codec
Format profile : High L4.1
Format settings, CABAC : Yes
Format settings, ReFrames : 5 frames
Muxing mode : Header stripping
Codec ID : V_MPEG4/ISO/AVC
Duration : 2h 14mn
Bit rate : 7 535 Kbps
Width : 1 280 pixels
Height : 720 pixels
Display aspect ratio : 16:9
Frame rate : 23.976 fps
Color space : YUV
Chroma subsampling : 4:2:0
Bit depth : 8 bits
Scan type : Progressive
Bits/(Pixel*Frame) : 0.341
Stream size : 6.95 GiB (95%)
Title : for freeisland
Writing library : x264 core 116 r2074 2641b9e
Encoding settings : cabac=1 / ref=5 / deblock=1:-1:-1 / analyse=0x3:0x133 / me=hex / subme=8 / psy=1 / psy_rd=1.00:0.15 / mixed_ref=1 / me_range=16 / chroma_me=1 / trellis=1 / 8x8dct=1 / cqm=0 / deadzone=21,11 / fast_pskip=1 / chroma_qp_offset=-3 / threads=4 / sliced_threads=0 / nr=0 / decimate=1 / interlaced=0 / bluray_compat=0 / constrained_intra=0 / bframes=11 / b_pyramid=2 / b_adapt=2 / b_bias=0 / direct=3 / weightb=1 / open_gop=0 / weightp=2 / keyint=250 / keyint_min=23 / scenecut=40 / intra_refresh=0 / rc_lookahead=50 / rc=2pass / mbtree=0 / bitrate=7535 / ratetol=1.0 / qcomp=1.00 / qpmin=0 / qpmax=69 / qpstep=4 / cplxblur=20.0 / qblur=0.5 / vbv_maxrate=50000 / vbv_bufsize=50000 / nal_hrd=none / ip_ratio=1.40 / pb_ratio=1.30 / aq=1:1.00
Language : English
Color primaries : BT.709-5, BT.1361, IEC 61966-2-4, SMPTE RP177
Transfer characteristics : BT.709-5, BT.1361
Matrix coefficients : BT.709-5, BT.1361, IEC 61966-2-4 709, SMPTE RP177
Audio
ID : 2
Format : AC-3
Format/Info : Audio Coding 3
Format profile : Dolby Digital
Mode extension : CM (complete main)
Muxing mode : Header stripping
Codec ID : A_AC3
Duration : 2h 14mn
Bit rate mode : Constant
Bit rate : 224 Kbps
Channel(s) : 2 channels
Channel positions : Front: L R
Sampling rate : 48.0 KHz
Bit depth : 16 bits
Compression mode : Lossy
Stream size : 216 MiB (3%)
Title : AC3, Russian, 2 channels, 224 kbps, 16 bits, 48.0 KHz
Language : English
Text #1
ID : 3
Format : VobSub
Muxing mode : zlib
Codec ID : S_VOBSUB
Codec ID/Info : The same subtitle format used on DVDs
Language : Russian
Text #2
ID : 4
Format : VobSub
Muxing mode : zlib
Codec ID : S_VOBSUB
Codec ID/Info : The same subtitle format used on DVDs
Language : English

Скриншоты

     

Трансформеры 3 (Дополнительные материалы)

Формат: TS
Качество: BDRemux (насчет этого качества сомневаюсь, просто выдрал из blu-ray)
Видео кодек: H.264
Аудио кодек: AC3
Видео: H.264, 4 500 Kbps, 1 280x528 pix, 23.976 fps, High L4.1
Аудио: AC3, 2 channels, 192 kbps, 16 bits, 48.0 KHz
Субтитры: Русские

MediaInfo

General
ID : 1 (0x1)
Complete name : H:\Трансформеры [BDRip 720p]\Трансформеры 3 (Дополнительные материалы).ts
Format : MPEG-TS
File size : 417 MiB
Duration : 11mn 48s
Overall bit rate : 4 931 Kbps
Maximum Overall bit rate : 35.5 Mbps
Video
ID : 4113 (0x1011)
Menu ID : 1 (0x1)
Format : AVC
Format/Info : Advanced Video Codec
Format profile : High L4.1
Format settings, CABAC : Yes
Format settings, ReFrames : 3 frames
Codec ID : 27
Duration : 11mn 48s
Bit rate mode : Variable
Bit rate : 4 500 Kbps
Maximum bit rate : 40.0 Mbps
Width : 1 280 pixels
Height : 720 pixels
Display aspect ratio : 16:9
Frame rate : 23.976 fps
Color space : YUV
Chroma subsampling : 4:2:0
Bit depth : 8 bits
Scan type : Progressive
Bits/(Pixel*Frame) : 0.204
Stream size : 380 MiB (91%)
Writing library : x264 core 116 r2057 0ba8a9c
Encoding settings : cabac=1 / ref=3 / deblock=1:-3:-3 / analyse=0x3:0x113 / me=esa / subme=10 / psy=1 / psy_rd=1.01:0.01 / mixed_ref=1 / me_range=32 / chroma_me=1 / trellis=2 / 8x8dct=1 / cqm=0 / deadzone=21,11 / fast_pskip=0 / chroma_qp_offset=-3 / threads=12 / sliced_threads=0 / slices=4 / nr=0 / decimate=1 / interlaced=0 / bluray_compat=1 / constrained_intra=0 / bframes=3 / b_pyramid=1 / b_adapt=2 / b_bias=4 / direct=2 / weightb=1 / open_gop=1 / weightp=0 / keyint=24 / keyint_min=2 / scenecut=40 / intra_refresh=0 / rc_lookahead=24 / rc=2pass / mbtree=1 / bitrate=4500 / ratetol=1.5 / qcomp=0.60 / qpmin=10 / qpmax=51 / qpstep=4 / cplxblur=20.0 / qblur=0.5 / vbv_maxrate=40000 / vbv_bufsize=30000 / nal_hrd=vbr / ip_ratio=1.40 / aq=1:1.00
Color primaries : BT.709-5, BT.1361, IEC 61966-2-4, SMPTE RP177
Transfer characteristics : BT.709-5, BT.1361
Matrix coefficients : BT.709-5, BT.1361, IEC 61966-2-4 709, SMPTE RP177
Audio
ID : 4352 (0x1100)
Menu ID : 1 (0x1)
Format : AC-3
Format/Info : Audio Coding 3
Format profile : Dolby Digital
Mode extension : CM (complete main)
Codec ID : 129
Duration : 11mn 48s
Bit rate mode : Constant
Bit rate : 192 Kbps
Channel(s) : 2 channels
Channel positions : Front: L R
Sampling rate : 48.0 KHz
Bit depth : 16 bits
Compression mode : Lossy
Stream size : 16.2 MiB (4%)
Language : English
Text
ID : 4608 (0x1200)
Menu ID : 1 (0x1)
Format : PGS
Codec ID : 144
Duration : 11mn 42s
Delay relative to video : 3s 170ms
Language : Russian

Скриншоты

       

_________________
|LOST|


Последний раз редактировалось: zeke (2011-10-23 20:41), всего редактировалось 1 раз
Вне форума [Профиль] [ЛС]
Показать сообщения:    
Ответить на тему

Текущее время: Сегодня 05:39

Часовой пояс: GMT + 3



Вы не можете начинать темы
Вы не можете отвечать на сообщения
Вы не можете редактировать свои сообщения
Вы не можете удалять свои сообщения
Вы не можете голосовать в опросах
Вы не можете прикреплять файлы к сообщениям
Вы не можете скачивать файлы