Сегодня идет свободное скачивание без начисления Download

Подозреваемый / В поле зрения / Person of Interest / Сезон: 1 / Серии: 1-6 из 13 (Ричард Дж. Льюис, Дэвид Семел) [2011, драма, триллер, HDTV 720p](LostFilm)

Ответить на тему
 
Автор
Сообщение

nsa1977 ®

Пол:

Стаж: 8 лет

Сообщений: 1490

Откуда: Пенза

Торрент-статистика

Пост 23-Окт-2011 20:16

[Цитировать]


Подозреваемый / В поле зрения / Person of Interest
Серии: 1-6 из 13
Год выпуска: 2011
Страна: США
Жанр: драма, триллер
Продолжительность: ~ 44 Мин.
Перевод: профессиональный многоголосый закадровый (LostFilm)
Русские субтитры: нет
Субтитры: отсутствуют
Режиссёр: Ричард Дж. Льюис, Дэвид Семел--В ролях: Джеймс Кэвизел, Майкл Эмерсон, Stanislav Shkilnyi, Узиманн, Тараджи П. Хенсон, Кевин Чэпмен, Куртеней Тейлор, Крис Чок, Жермен Кроуфорд, Брайан Д’Арси Джеймс и др.--Описание: Предполагаемо погибший бывший агент ЦРУ Риз объединяется с таинственным миллионером чтобы предотвращать преступления. Подготовка Риза в проведении операций под прикрытием привлекает внимание миллионера Финча, гения-программиста, который изобрел программу, позволяющую предсказывать преступные склонности людей на базе анализа поведения. Используя последние достижения техники, эти двое часто преступают закон, используя навыки Риза и бесконечное богатство Финча, и останавливают преступников еще до совершения преступления. Действия Риза привлекают к себе внимание детектива Картер из отдела убийств и полицейского Фуско, которого Риз использует в своих целях. Риз и Финч понимают, что правильный человек с правильной информацией в нужное время и в нужном месте может изменить все.--Сэмпл / ImDB / Кинопоиск
Качество: HDTV 720p
Формат: MKV
Видео кодек: H.264
Аудио кодек: AC3
Видео: MPEG-4 AVC / 3042 kbps / 1280:720p / 23.976 fps / 16:9 / High Level 3.1
Аудио:
  • Русский Dolby Digital 2.0 / 48 kHz / 192 kbps
  • English Dolby Digital 5.1 / 48 kHz / 384 kbps
--

Список серий

  • Пилот / Pilot

MI

Общее
Уникальный идентификатор : 208183103363463561134485844926143663134 (0x9C9E9B75EFB41085A9B3049240B00C1E)
Полное имя : E:\Подозреваемый\Person of Interest S01 HDTV 720p (LostFilm)\Person of Interest S01E01 HDTV 720p (LostFilm).mkv
Формат : Matroska
Размер файла : 1,13 Гбайт
Продолжительность : 43 м.
Общий поток : 3691 Кбит/сек
Название фильма : Person of Interest (2011) S01E01 - Pilot - @ - Gater -
Дата кодирования : UTC 2011-10-28 21:22:36
Программа кодирования : mkvmerge v4.0.0 ('The Stars were mine') сборка от Jun 6 2010 16:18:42
Библиотека кодирования : libebml v1.0.0 + libmatroska v1.0.0
Видео
Идентификатор : 1
Формат : AVC
Формат/Информация : Advanced Video Codec
Профиль формата : High@L3.1
Параметр CABAC формата : Да
Параметр ReFrames формата : 5 кадры
Идентификатор кодека : V_MPEG4/ISO/AVC
Продолжительность : 43 м.
Битрейт : 3042 Кбит/сек
Ширина : 1280 пикс.
Высота : 720 пикс.
Соотношение сторон : 16:9
Частота кадров : 23,976 кадр/сек
Цветовое пространство : YUV
Подвыборка цветности : 4:2:0
Битовая глубина : 8 бит
Тип развёртки : Прогрессивная
Бит/(Пиксели*Кадры) : 0.138
Размер потока : 952 Мбайт (82%)
Заголовок : Person of Interest (2011) S01E01 - Pilot - @ - Gater -
Библиотека кодирования : x264 core 116 r2074 2641b9e
Настройки программы : cabac=1 / ref=5 / deblock=1:0:0 / analyse=0x3:0x113 / me=umh / subme=8 / psy=1 / psy_rd=1.00:0.00 / mixed_ref=1 / me_range=16 / chroma_me=1 / trellis=1 / 8x8dct=1 / cqm=0 / deadzone=21,11 / fast_pskip=1 / chroma_qp_offset=-2 / threads=18 / sliced_threads=0 / nr=0 / decimate=1 / interlaced=0 / bluray_compat=0 / constrained_intra=0 / bframes=3 / b_pyramid=2 / b_adapt=2 / b_bias=0 / direct=3 / weightb=1 / open_gop=0 / weightp=2 / keyint=250 / keyint_min=23 / scenecut=40 / intra_refresh=0 / rc_lookahead=50 / rc=crf / mbtree=1 / crf=19.0 / qcomp=0.60 / qpmin=0 / qpmax=69 / qpstep=4 / ip_ratio=1.40 / aq=1:1.00
Язык : English
Аудио #1
Идентификатор : 2
Формат : AC-3
Формат/Информация : Audio Coding 3
Расширение режима : CM (complete main)
Идентификатор кодека : A_AC3
Продолжительность : 43 м.
Вид битрейта : Постоянный
Битрейт : 192 Кбит/сек
Канал(ы) : 2 канала(ов)
Расположение каналов : Front: L R
Частота : 48,0 КГц
Битовая глубина : 16 бит
Метод сжатия : С потерями
Размер потока : 60,1 Мбайт (5%)
Заголовок : AC3 DD 2.0 48.0 kHz @ 192 kbps - Студия "Кравец" Для LostFilm.TV
Язык : Russian
Аудио #2
Идентификатор : 3
Формат : AC-3
Формат/Информация : Audio Coding 3
Расширение режима : CM (complete main)
Идентификатор кодека : A_AC3
Продолжительность : 43 м.
Вид битрейта : Постоянный
Битрейт : 384 Кбит/сек
Канал(ы) : 6 канала(ов)
Расположение каналов : Front: L C R, Side: L R, LFE
Частота : 48,0 КГц
Битовая глубина : 16 бит
Метод сжатия : С потерями
Размер потока : 120 Мбайт (10%)
Заголовок : AC3 DD 5.1 48.0 kHz @ 384 kbps - Original
Язык : English

Внимание! Раздача ведется путём добавления новых серий.

Внимание! Раздача ведётся путём добавления новых серий; при каждом добавлении создётся новый торрент. Чтобы начать докачку новой серии, пользователям необходимо сделать следующее:-1) остановить скачивание,
2) удалить старый торрент у себя из клиента (старые серии удалять не надо),
3) скачать новый торрент и запустить его у себя в клиенте вместо старого, при этом указать клиенту путь в старую папку куда и должно происходить скачивание новых серий.
Ваш клиент при этом должен произвести хеширование (проверку) старой папки (если не производит сам - помогите ему сделать это), и будет докачивать только те серии которых у вас ещё нет. Старые серии при этом не удаляются, а продолжают раздаваться!
Eсли вы уже удалили старые серии, то предотвратить повторную закачку старых серий можно, отжав галочку в соответсвующих местах при запуске нового торрента.
-
         Релиз:

_________________


Последний раз редактировалось: nsa1977 (2011-10-23 20:20), всего редактировалось 2 раз(а)
Вне форума [Профиль] [ЛС]
Показать сообщения:    
Ответить на тему

Текущее время: Сегодня 10:43

Часовой пояс: GMT + 3



Вы не можете начинать темы
Вы не можете отвечать на сообщения
Вы не можете редактировать свои сообщения
Вы не можете удалять свои сообщения
Вы не можете голосовать в опросах
Вы не можете прикреплять файлы к сообщениям
Вы не можете скачивать файлы