Сегодня идет свободное скачивание без начисления Download

Губка Боб Квадратные Штаны / SpongeBob SquarePants / Сезон: 9 / Серии: 5ab из 20 (Стивен Хилленбург / Stephen Hillenburg) [2012, Мультипликация, WEB-DL 1080p] Dub

Ответить на тему
 
Автор
Сообщение

Omen ®

Стаж: 5 лет

Сообщений: 190529

Торрент-статистика

Пост 03-Ноя-2013 02:14

[Цитировать]

Губка Боб Квадратные Штаны / SpongeBob SquarePants
Страна: США
Жанр: Мультипликация
Продолжительность: ~ 11:00 серия
Год выпуска: 2012
Перевод: Профессиональный (дублированный)
Русские субтитры: нет
Режиссёр: Стивен Хилленбург / Stephen Hillenburg
Описание: Кто проживает на дне океана? Спанч Боб Сквэр Пэнтс! Или просто Губка Боб квадратные штаны. Этот мультсериал был снят в студии Никелодеон и появился на экранах в 1999 году и сразу завоевал свое место под солнцем. На данный момент я думаю нет такого человека который бы не знал кто такой Губка Боб. Но если все-таки такие есть тогда рассказываю. На глубине океана существует город под названием Бикини Боттом там и происходит все действие. Главного героя зовут Спанч Боб или просто Губка Боб он работает в ресторане мистера Крабса. И уже давно мечтает о повышении. Умом губку само собой аниматоры и сценаристы наделять и не думали, живет себе так и живет.
Релиз от -
Качество: WEB-DL 1080p
Формат: MKV
Видео: AVC, 1916x1076 (16:9), 23.976 fps, 4 743 Kbps (0.096 bit/pixel)
Аудио 1: AC-3, 48.0 KHz, 2 ch, 192 Kbps, CBR (Russian)
Аудио 2: AC-3, 48.0 KHz, 2 ch, 192 Kbps, CBR (English)
Субтитры: english
Семпл: Забираем тут

Список серий:

S09E05a - Little Yellow Book
S09E05b - Bumper to Bumper

Внимание! Раздача ведется путем добавления новых серий

Внимание! Раздача ведётся путём добавления новых серий; при каждом добавлении создётся новый торрент. Чтобы начать докачку новой серии, пользователям необходимо сделать следующее:
(1) остановить скачивание,
(2) удалить старый торрент у себя из клиента (старые серии удалять не надо),
(3) скачать новый торрент и запустить его у себя в клиенте вместо старого, при этом указать клиенту путь в старую папку куда и должно происходить скачивание новых серий.
Ваш клиент при этом должен произвести хеширование (проверку) старой папки (если не производит сам - помогите ему сделать это), и будет докачивать только те серии которых у вас ещё нет. Старые серии при этом не удаляются, а продолжают раздаваться!
Eсли вы уже удалили старые серии, то предотвратить повторную закачку старых серий можно, отжав галочку в соответсвующих местах при запуске нового торрента. По возможности, желательно не удалять старые серии как можно дольше чтобы релизёр не столько продолжал раздавать старые серии, а смог сконцентрироваться на новых.

Подробные технические данные

Общее
Уникальный идентификатор : 187215980404543742225865742473316278103 (0x8CD87C7C615A1E5DB00072944EA01F57)
Полное имя : C:\SpongeBob SquarePants 9 1080p\S09E05 Little Yellow Book - Bumper to Bumper 1080p.mkv
Формат : Matroska
Версия формата : Version 4 / Version 2
Размер файла : 895 Мбайт
Продолжительность : 23 м.
Общий поток : 5231 Кбит/сек
Дата кодирования : UTC 2013-11-02 19:56:21
Программа кодирования : mkvmerge v6.4.1 ('Omega Point') built on Sep 16 2013 22:05:10
Библиотека кодирования : libebml v1.3.0 + libmatroska v1.4.1
Видео
Идентификатор : 1
Формат : AVC
Формат/Информация : Advanced Video Codec
Профиль формата : High@L4.0
Параметр CABAC формата : Да
Параметр ReFrames формата : 4 кадра
Идентификатор кодека : V_MPEG4/ISO/AVC
Продолжительность : 23 м.
Битрейт : 4743 Кбит/сек
Ширина : 1916 пикселей
Высота : 1076 пикселей
Соотношение сторон : 16:9
Частота кадров : 23,976 кадра/сек
Цветовое пространство : YUV
Субдискретизация насыщенности : 4:2:0
Битовая глубина : 8 бит
Тип развёртки : Прогрессивная
Бит/(Пиксели*Кадры) : 0.096
Размер потока : 812 Мбайт (91%)
Язык : English
Default : Да
Forced : Нет
Основные цвета : BT.709-5, BT.1361, IEC 61966-2-4, SMPTE RP177
Характеристики трансфера : BT.709-5, BT.1361
Коэффициенты матрицы : BT.709-5, BT.1361, IEC 61966-2-4 709, SMPTE RP177
Аудио #1
Идентификатор : 2
Формат : AC-3
Формат/Информация : Audio Coding 3
Расширение режима : CM (complete main)
Идентификатор кодека : A_AC3
Продолжительность : 23 м.
Вид битрейта : Постоянный
Битрейт : 192 Кбит/сек
Каналы : 2 канала
Расположение каналов : Front: L R
Частота : 48,0 КГц
Битовая глубина : 16 бит
Метод сжатия : С потерями
Размер потока : 32,9 Мбайт (4%)
Язык : Russian
Default : Да
Forced : Нет
Аудио #2
Идентификатор : 3
Формат : AC-3
Формат/Информация : Audio Coding 3
Расширение режима : CM (complete main)
Идентификатор кодека : A_AC3
Продолжительность : 23 м.
Вид битрейта : Постоянный
Битрейт : 192 Кбит/сек
Каналы : 2 канала
Расположение каналов : Front: L R
Частота : 48,0 КГц
Битовая глубина : 16 бит
Метод сжатия : С потерями
Размер потока : 32,9 Мбайт (4%)
Язык : English
Default : Нет
Forced : Нет
Текст
Идентификатор : 4
Формат : UTF-8
Идентификатор кодека : S_TEXT/UTF8
Идентификатор кодека/Информация : UTF-8 Plain Text
Язык : English
Default : Нет
Forced : Нет

Скриншоты

Вне форума [Профиль] [ЛС]
Показать сообщения:    
Ответить на тему

Текущее время: Сегодня 14:12

Часовой пояс: GMT + 3



Вы не можете начинать темы
Вы не можете отвечать на сообщения
Вы не можете редактировать свои сообщения
Вы не можете удалять свои сообщения
Вы не можете голосовать в опросах
Вы не можете прикреплять файлы к сообщениям
Вы не можете скачивать файлы