Сегодня идет свободное скачивание без начисления Download

Футурама / Futurama / Сезон: 7 / Серии: 1-13 из 26 (Мэтт Гроунинг / Matt Groening) [2012, Фантастика, комедия, HDRip] DVO 2x2 (Б.Быстров, И. Савина)

Ответить на тему
 
Автор
Сообщение

Omen ®

Стаж: 5 лет

Сообщений: 190530

Торрент-статистика

Пост 02-Ноя-2013 21:42

[Цитировать]

Футурама
Сезон 7, 2х2
Страна: США
Жанр: Фантастика, комедия
Продолжительность: 0:21:38
Год выпуска: 2012
Перевод: Профессиональный (двухголосый закадровый) Б.Быстров, И.Савина
Русские субтитры: нет
Автор идеи: Мэтт Гроунинг, Дэвид Коэн
Режиссёр: Фрэнк Марино, Дуэйн Кэри-Хилл, Стивен Сандовал, Кристалл Чесни-Томпсон...
Роли озвучивали: Билли Уэст, Кейти Сэгал, Джон ДиМаджио, Фил ЛаМарр, Лоурэн Том и др.
Описание: Сериал начинается с того, что разносчик пиццы из Нью-Йорка Филипп Джей Фрай случайно, как это кажется на первый взгляд, был заморожен в криогенной камере ровно в 00 часов 00 минут 00 секунд 1 января 2000 года. Он был разморожен тысячу лет спустя, 31 декабря 2999 года, и обнаружил себя в городе будущего Нью-Нью-Йорке. Пытаясь избежать принудительного назначения на работу курьером, кем он и был в прошлой жизни, Фрай познакомился со своими будущими коллегами - Турангой Лилой, роботом Бендером и пра-пра-пра-…-пра-внучатым племянником Хьюбертом Фарнсвортом — маразматичным 160-летним гениальным ученым-склеротиком, который берёт их на работу в свою небольшую компанию «Межпланетный экспресс», занимающуюся межгалактическими грузоперевозками. «Межпланетный экспресс» — это маленький бизнес профессора, окупающий его гениальные, но иногда весьма сомнительные исследования и изобретения.
Список серий:
Сезон 7А (2012)
7ACV01 (S7E01) The Bots and the Bees
7ACV02 (S7E02) A Farewell to Arms
7ACV03 (S7E03) Decision 3012
7ACV04 (S7E04) The Thief of Baghead
7ACV05 (S7E05) Zapp Dingbat
7ACV06 (S7E06) The Butterjunk Effect
7ACV07 (S7E07) The Six Million Dollar Mon
7ACV08 (S7E08) Fun On a Bun
7ACV09 (S7E09) Free Will Hunting
7ACV10 (S7E10) Near-Death Wish
7ACV11 (S7E12) 31st Century Fox
7ACV12 (S7E11) Viva Mars Vegas
7ACV13 (S7E13) Naturama
Спасибо!
#Antisnl# , Den.S-92 , Din Winchester - захват вещания 2х2
Антифеминист - оригинальные аудиодорожки
Доп. информация: Аудиодорожки получены из потоков IPTV и DVB-S2, растянуты без сохранения тональности, синхронизированы с оригинальными дорожками БД Vol.7. Выполнено шумопонижение по образцу шума. Добавлены концовки, заполнены пропуски.
Исходное видео: http:///*spam*//forum/viewtopic.php?t=4347643
Семпл: S7-2x2.avi
Качество: HDRip
Формат: AVI
Видео: Xvid, 720x400p, 23,976fps ~1440kbps
Аудио 1: Русский, телеканал 2х2 | MP3, 128kbps, 48kHz, двойной моно
Аудио 2: Английский, Оригинал | MP3 128kbps, 48kHz, стерео
Субтитры: Отсутствуют

Подробные технические данные

ОбщееПолное имя : F:\Futurama.S7.2x2\7ACV01-The Bots and the Bees.2x2.aviФормат : AVIФормат/Информация : Audio Video InterleaveРазмер файла : 261 МбайтПродолжительность : 21 м.Общий поток : 1684 Кбит/сек
ВидеоИдентификатор : 0Формат : MPEG-4 VisualПрофиль формата : Advanced Simple@L5Параметр BVOP формата : 1Параметр QPel формата : НетПараметр GMC формата : Без точки переходаПараметр матрицы формата : Default (H.263)Идентификатор кодека : XVIDИдентификатор кодека/Подсказка : XviDПродолжительность : 21 м.Битрейт : 1414 Кбит/секШирина : 720 пикселейВысота : 400 пикселейСоотношение сторон : 16:9Частота кадров : 23,976 кадра/секЦветовое пространство : YUVСубдискретизация насыщенности : 4:2:0Битовая глубина : 8 битТип развёртки : ПрогрессивнаяМетод сжатия : С потерямиБит/(Пиксели*Кадры) : 0.205Размер потока : 219 Мбайт (84%)Библиотека кодирования : XviD 64
Аудио #1Идентификатор : 1Формат : MPEG AudioВерсия формата : Version 1Профиль формата : Layer 3Режим : Joint stereoРасширение режима : MS StereoИдентификатор кодека : 55Идентификатор кодека/Подсказка : MP3Продолжительность : 21 м.Вид битрейта : ПостоянныйБитрейт : 128 Кбит/секКаналы : 2 каналаЧастота : 48,0 КГцМетод сжатия : С потерямиРазмер потока : 19,8 Мбайт (8%)Выравнивание : Соединение по промежуткамПродолжительность промежутка : 42 мс. (1,00 видеокадр)Время предзагрузки промежутка : 504 мс.Библиотека кодирования : LAME3.98.4
Аудио #2Идентификатор : 2Формат : MPEG AudioВерсия формата : Version 1Профиль формата : Layer 3Режим : Joint stereoИдентификатор кодека : 55Идентификатор кодека/Подсказка : MP3Продолжительность : 21 м.Вид битрейта : ПостоянныйБитрейт : 128 Кбит/секКаналы : 2 каналаЧастота : 48,0 КГцМетод сжатия : С потерямиРазмер потока : 19,8 Мбайт (8%)Выравнивание : Соединение по промежуткамПродолжительность промежутка : 42 мс. (1,00 видеокадр)Время предзагрузки промежутка : 504 мс.

Скриншоты


Сезон 6, 2х2, серии 1-13
Сезон 6, 2х2, серии 14-26
Альтернативные раздачи
Вне форума [Профиль] [ЛС]
Показать сообщения:    
Ответить на тему

Текущее время: Сегодня 20:53

Часовой пояс: GMT + 3



Вы не можете начинать темы
Вы не можете отвечать на сообщения
Вы не можете редактировать свои сообщения
Вы не можете удалять свои сообщения
Вы не можете голосовать в опросах
Вы не можете прикреплять файлы к сообщениям
Вы не можете скачивать файлы