Сегодня идет свободное скачивание без начисления Download

Губка Боб Квадратные Штаны / SpongeBob SquarePants / Сезон: 9 / Серии: 5,6 из 20 (Стивен Хилленбург / Stephen Hillenburg) [2011, Мультипликация, SATRip] Dub

Ответить на тему
 
Автор
Сообщение

Omen ®

Стаж: 4 года 10 месяцев

Сообщений: 190643

Торрент-статистика

Пост 02-Ноя-2013 21:42

[Цитировать]

Губка Боб Квадратные Штаны / SpongeBob SquarePants
Страна: США
Жанр: Мультипликация
Продолжительность: ~ 11:00 серия
Год выпуска: 2012
Перевод: Профессиональный (дублированный)
Русские субтитры: нет
Режиссёр: Стивен Хилленбург / Stephen Hillenburg
Описание: Кто проживает на дне океана? Спанч Боб Сквэр Пэнтс! Или просто Губка Боб квадратные штаны. Этот мультсериал был снят в студии Никелодеон и появился на экранах в 1999 году и сразу завоевал свое место под солнцем. На данный момент я думаю нет такого человека который бы не знал кто такой Губка Боб. Но если все-таки такие есть тогда рассказываю. На глубине океана существует город под названием Бикини Боттом там и происходит все действие. Главного героя зовут Спанч Боб или просто Губка Боб он работает в ресторане мистера Крабса. И уже давно мечтает о повышении. Умом губку само собой аниматоры и сценаристы наделять и не думали, живет себе так и живет.
Релиз от -
Качество: SATRip
Формат: AVI
Видео: MPEG4, XviD, 720x400 (16:9), 25.000 fps, 1 646 Kbps (0.229 bit/pixel)
Аудио: MP3, 44.1 KHz, 2 ch, 128 Kbps, CBR
Субтитры: отсутствуют
Семпл: Забираем тут

Список серий:

S09E05a - Little Yellow Book
S09E05b - Bumper to Bumper

Подробные технические данные

ОбщееПолное имя : C:\SpongeBob SquarePants_9\S09E05ab - Little Yellow Book_Bumper to Bumper.aviФормат : AVIФормат/Информация : Audio Video InterleaveРазмер файла : 286 МбайтПродолжительность : 22 м.Общий поток : 1783 Кбит/сек
ВидеоИдентификатор : 0Формат : MPEG-4 VisualПрофиль формата : Advanced Simple@L5Параметр BVOP формата : 2Параметр QPel формата : НетПараметр GMC формата : Без точки переходаПараметр матрицы формата : Default (H.263)Идентификатор кодека : XVIDИдентификатор кодека/Подсказка : XviDПродолжительность : 22 м.Битрейт : 1646 Кбит/секШирина : 720 пикселейВысота : 400 пикселейСоотношение сторон : 16:9Частота кадров : 25,000 кадров/секЦветовое пространство : YUVСубдискретизация насыщенности : 4:2:0Битовая глубина : 8 битТип развёртки : ПрогрессивнаяМетод сжатия : С потерямиБит/(Пиксели*Кадры) : 0.229Размер потока : 264 Мбайт (92%)Библиотека кодирования : XviD 1.2.1 (UTC 2008-12-04)
АудиоИдентификатор : 1Формат : MPEG AudioВерсия формата : Version 1Профиль формата : Layer 3Идентификатор кодека : 55Идентификатор кодека/Подсказка : MP3Продолжительность : 22 м.Вид битрейта : ПостоянныйБитрейт : 128 Кбит/секКаналы : 2 каналаЧастота : 44,1 КГцМетод сжатия : С потерямиРазмер потока : 20,5 Мбайт (7%)Выравнивание : Соединение по промежуткамПродолжительность промежутка : 53 мс. (1,33 видеокадр)Время предзагрузки промежутка : 522 мс.Заголовок : hdencodertox-pid2Библиотека кодирования : LAME3.98

Внимание! Раздача ведется путем добавления новых серий

Внимание! Раздача ведётся путём добавления новых серий; при каждом добавлении создётся новый торрент. Чтобы начать докачку новой серии, пользователям необходимо сделать следующее:
(1) остановить скачивание,
(2) удалить старый торрент у себя из клиента (старые серии удалять не надо),
(3) скачать новый торрент и запустить его у себя в клиенте вместо старого, при этом указать клиенту путь в старую папку куда и должно происходить скачивание новых серий.
Ваш клиент при этом должен произвести хеширование (проверку) старой папки (если не производит сам - помогите ему сделать это), и будет докачивать только те серии которых у вас ещё нет. Старые серии при этом не удаляются, а продолжают раздаваться!
Eсли вы уже удалили старые серии, то предотвратить повторную закачку старых серий можно, отжав галочку в соответсвующих местах при запуске нового торрента. По возможности, желательно не удалять старые серии как можно дольше чтобы релизёр не столько продолжал раздавать старые серии, а смог сконцентрироваться на новых.

Скриншоты

Вне форума [Профиль] [ЛС]
Показать сообщения:    
Ответить на тему

Текущее время: Сегодня 03:55

Часовой пояс: GMT + 3



Вы не можете начинать темы
Вы не можете отвечать на сообщения
Вы не можете редактировать свои сообщения
Вы не можете удалять свои сообщения
Вы не можете голосовать в опросах
Вы не можете прикреплять файлы к сообщениям
Вы не можете скачивать файлы