Сегодня идет свободное скачивание без начисления Download

Гриффины / Family Guy / Сезон: 12 / Серии: 1-2 из ? (Сет Макфарлейн / Seth MacFarlane) [2013, Ситком, Чёрный юмор, Буффонада, Комедия, Пародия, WEB-DL 1080p] DVO (SifeR) + Original + Subs (Rus, Eng)

Ответить на тему
 
Автор
Сообщение

Omen ®

Стаж: 5 лет

Сообщений: 190529

Торрент-статистика

Пост 31-Окт-2013 22:08

[Цитировать]

Гриффины / Family Guy
Сезон 12-WEB-DL: 1080p | 720p | 400p
- Год выпуска: 2013
Страна: США
Жанр: Ситком, Чёрный юмор, Буффонада, Комедия, Пародия-Перевод: Любительский (двухголосый закадровый) - SifeR-Режиссёры: Питер Шин, Пит Мишелс, Джеймс Пурдум
Сценарий: Сет МакФарлейн, Дэвид Цуккерман, Алекс Борштейн
Продюссер: Сет МакФарлейн, Кара Вэллоу, Крис Шеридан
В ролях: Сет Макфарлейн, Алекс Борштейн, Сет Грин, Мила Кунис, Майк Генри-Описание:"Гриффины" (Family Guy) - анимационное ТВ-Шоу, созданное Сетом МакФерлайном (Seth MacFarlane) для телеканала FOX. Как нетрудно догадаться, главными героями шоу является семейка Гриффинов: тупой, но полный сумашедших идей, составляющих львиную долю шуток сериала, отец семейства Питер; его любящя и терпеливая жена Лойс, всеми силами пытающаяся превратить Гриффинов в нормальную семью; их интеллектуально развитый не по годам, вынашивающий идею мирового господства младший сын Стьюи; дочь-ботаник, обречённая из-за этого на одиночество и непонимание как в школе так и дома, Мэг; и 13-ти летний отсталый в развитии лет на 10, сын Крис. Также полноценным членом семьи является пёс Брайн - склонный к меланхолии эстет, спокойно наблюдающий с бокалом вина в лапе над приключениями Питера и остальных членов семьи (и это при всём притом, что остальные собаки в сериале не являются очеловеченными)-Продолжительность эпизода: ~ 20 мин.-Список серий:
  • Finders Keepers [21:34]
  • Vestigial Peter [21:35]-
  • In Harmony's Way [31.10.2013]
  • Quagmire's Quagmire [03.11.2013]
  • A Fistful of Meg [10.11.2013]
  • 3 Acts of God [26.01.2014]
-Качество: WEB-DL 1080p
Формат: MKV
Видео кодек: AVC
Аудио кодек: AC3
Видео: 1912x1072 (16:9), 23.976 fps, ~3500 kbps, ~0.070 bit/pixel
Аудио Rus: 48 kHz, 6 ch, ~384 kbps |SifeR|
Аудио Eng: 48 kHz, 6 ch, ~384 kbps |Original|
Субтитры: Русские, английские-
Сэмпл
-Озвучка: "SifeR" + "С причудами"
Перевод: Notabenoid (imad, T_chka, Redjedet, spacemob)
Работа с видео/аудио/синхронизация субтитров: Кирилл Жирнов-

Скриншоты

Episode 1:
At What Price

-Episode 2:
Out Of The Frying Pan

MediaInfo

Код:
...\Family Guy Season 12 1080p\Family Guy S12E01. Finders Keepers. SifeR.mkv
  General
    Unique ID : 185910652400038501603434163447551520297 (0x8BDD16D8AE2CDA3793462DEA4F706E29)
    Complete name ..\Family Guy Season 12 1080p\Family Guy S12E01. Finders Keepers. SifeR.mkv
    Format : Matroska
    Format version : Version 4 / Version 2
    File size : 663 MiB
    Duration : 21mn 34s
    Overall bit rate : 4 297 Kbps
    Encoded date : UTC 2013-10-17 10:37:16
    Writing application : mkvmerge v6.4.1 ('Omega Point') built on Sep 16 2013 22:05:10
    Writing library : libebml v1.3.0 + libmatroska v1.4.1
  Video #1
    ID : 1
    Format : AVC
    Format/Info : Advanced Video Codec
    Format profile : High@L4.0
    Format settings, CABAC : Yes
    Format settings, ReFrames : 4 frames
    Codec ID : V_MPEG4/ISO/AVC
    Duration : 21mn 34s
    Bit rate : 3 443 Kbps
    Width : 1 912 pixels
    Height : 1 072 pixels
    Display aspect ratio : 16:9
    Frame rate mode : Constant
    Frame rate : 23.976 fps
    Color space : YUV
    Chroma subsampling : 4:2:0
    Bit depth : 8 bits
    Scan type : Progressive
    Bits/(Pixel*Frame) : 0.070
    Stream size : 531 MiB (80%)
    Title : SifeR
    Language : English
    Default : No
    Forced : No
    Color primaries : BT.709
    Transfer characteristics : BT.709
    Matrix coefficients : BT.709
  Audio #2
    ID : 2
    Format : AC-3
    Format/Info : Audio Coding 3
    Mode extension : CM (complete main)
    Format settings, Endianness : Big
    Codec ID : A_AC3
    Duration : 21mn 34s
    Bit rate mode : Constant
    Bit rate : 384 Kbps
    Channel(s) : 6 channels
    Channel positions : Front: L C R, Side: L R, LFE
    Sampling rate : 48.0 KHz
    Bit depth : 16 bits
    Compression mode : Lossy
    Stream size : 59.3 MiB (9%)
    Title : SifeR
    Language : Russian
    Default : No
    Forced : No
  Audio #3
    ID : 3
    Format : AC-3
    Format/Info : Audio Coding 3
    Mode extension : CM (complete main)
    Format settings, Endianness : Big
    Codec ID : A_AC3
    Duration : 21mn 34s
    Bit rate mode : Constant
    Bit rate : 384 Kbps
    Channel(s) : 6 channels
    Channel positions : Front: L C R, Side: L R, LFE
    Sampling rate : 48.0 KHz
    Bit depth : 16 bits
    Compression mode : Lossy
    Delay relative to video : 3ms
    Stream size : 59.3 MiB (9%)
    Title : Original
    Language : English
    Default : No
    Forced : No
  Text #4
    ID : 4
    Format : UTF-8
    Codec ID : S_TEXT/UTF8
    Codec ID/Info : UTF-8 Plain Text
    Title : Notabenoid
    Language : Russian
    Default : No
    Forced : No
  Text #5
    ID : 5
    Format : UTF-8
    Codec ID : S_TEXT/UTF8
    Codec ID/Info : UTF-8 Plain Text
    Title : Original
    Language : English
    Default : No
    Forced : No

Внимание! Раздача ведётся путём добавления новых серий!

Внимание! Раздача ведётся путём добавления новых серий; при каждом добавлении создётся новый торрент. Чтобы начать докачку новой серии, пользователям необходимо сделать следующее:
    • остановить скачивание,
    • удалить старый торрент у себя из клиента (старые серии удалять не надо),
    • скачать новый торрент и запустить его у себя в клиенте вместо старого, при этом указать клиенту путь в старую папку куда и должно происходить скачивание новых серий.
  • Ваш клиент при этом должен произвести хеширование (проверку) старой папки (если не производит сам - помогите ему сделать это), и будет докачивать только те серии которых у вас ещё нет. Старые серии при этом не удаляются, а продолжают раздаваться!
  • Eсли вы уже удалили старые серии, то предотвратить повторную закачку старых серий можно, отжав галочку в соответсвующих местах при запуске нового торрента.
Вне форума [Профиль] [ЛС]
Показать сообщения:    
Ответить на тему

Текущее время: Сегодня 12:26

Часовой пояс: GMT + 3



Вы не можете начинать темы
Вы не можете отвечать на сообщения
Вы не можете редактировать свои сообщения
Вы не можете удалять свои сообщения
Вы не можете голосовать в опросах
Вы не можете прикреплять файлы к сообщениям
Вы не можете скачивать файлы