Сегодня идет свободное скачивание без начисления Download

Дракула / Dracula (2013) WEB-DLRip (Сезон 1, серия 1 из 10) (LostFilm) (Обновляемая)

Ответить на тему
 
Автор
Сообщение

UndegraundMen ®

Стаж: 5 лет 8 месяцев

Сообщений: 25860

Торрент-статистика

Пост 30-Окт-2013 05:05

[Цитировать]

Дракула / Dracula
(Сезон 1, серия 1 из 10) (2013) WEB-DLRip
- Год выпуска: 2013
Жанр: Драма, Ужасы
Перевод: Многоголосый закадровый, профессиональный LostFilm

Дата мировой премьеры: 25.10.2013
Режиссёр: Стив Шилл
Актёры: Джонатан Риз Майерс (Dracula), Джессика Де Гау (Mina Murray), Оливер Джексон-Коэн (Jonathan Harker), Томас Кречман (Abraham Van Helsing), Кэти МакГрат (Lucy Westenra), Нонсо Анози (R.M. Renfield), Виктория Смёрфит (Lady Jane) и др.
Описание фильма:
Сериал покажет историю Дракулы, который приезжает в Лондон, выдавая себя за американского предпринимателя; утверждающего, что он хочет привнести современные технологии в викторианское общество. Он особенно заинтересован в новой технологии электричества, которая обещает сделать ночь светлее…
На самом деле, он надеется отомстить людям, которые разрушили его жизнь веками ранее.
Есть лишь одно обстоятельство, которое может разрушить этот план: Дракула безнадёжно влюбляется в женщину; которая кажется ему перевоплощением его умершей жены.

Список эпизодов:

E01 Кровь есть жизнь (The Blood Is the Life), (00:43:05)

MediaInfo

Общее
Полное имя : H:\Serials\Dracula.S01.rus.LostFilm\Dracula.S01E01.rus.LostFilm.TV.avi
Формат : AVI
Формат/Информация : Audio Video Interleave
Размер файла : 448 Мбайт
Продолжительность : 43 м.
Режим общего битрейта : Переменный
Общий поток : 1454 Кбит/сек
Программа кодирования : Nandub v1.0rc2
Библиотека кодирования : Nandub build 1853/release
Видео
Идентификатор : 0
Формат : MPEG-4 Visual
Профиль формата : Simple@L3
Параметр BVOP формата : Нет
Параметр QPel формата : Нет
Параметр GMC формата : Без точки перехода
Параметр матрицы формата : Default (H.263)
Идентификатор кодека : XVID
Идентификатор кодека/Подсказка : XviD
Продолжительность : 43 м.
Битрейт : 1251 Кбит/сек
Ширина : 720 пикселей
Высота : 400 пикселей
Соотношение сторон : 16:9
Частота кадров : 29,970 кадров/сек
Цветовое пространство : YUV
Субдискретизация насыщенности : 4:2:0
Битовая глубина : 8 бит
Тип развёртки : Прогрессивная
Метод сжатия : С потерями
Бит/(Пиксели*Кадры) : 0.145
Размер потока : 385 Мбайт (86%)
Библиотека кодирования : XviD 1.2.1 (UTC 2008-12-04)
Аудио
Идентификатор : 1
Формат : MPEG Audio
Версия формата : Version 1
Профиль формата : Layer 3
Режим : Joint stereo
Расширение режима : MS Stereo
Идентификатор кодека : 55
Идентификатор кодека/Подсказка : MP3
Продолжительность : 43 м.
Вид битрейта : Переменный
Битрейт : 192 Кбит/сек
Каналы : 2 канала
Частота : 48,0 КГц
Метод сжатия : С потерями
Размер потока : 58,4 Мбайт (13%)
Выравнивание : Соединение по промежуткам
Продолжительность промежутка : 24 мс. (0,72 видеокадр)
Время предзагрузки промежутка : 490 мс.
Библиотека кодирования : LAME3.97b
Настройки программы : -m j -V 4 -q 3 -lowpass 18.6 --abr 192

Внимание! Раздача ведётся путём добавления новых серий!

Внимание! Раздача ведётся путём добавления новых серий, при каждом добавлении создаётся новый торрент. Чтобы начать докачку новой серии, пользователям необходимо сделать следующее:
  • Остановить скачивание.
  • Удалить старый торрент у себя из клиента (старые серии удалять не надо).
  • Скачать новый торрент, и запустить его у себя в клиенте вместо старого; при этом указать клиенту путь в старую папку, куда и должно происходить скачивание новых серий.Ваш клиент при этом должен произвести хеширование (проверку) старой папки (если не производит сам – помогите ему сделать это), и будет докачивать только те серии, которых у вас ещё нет. Старые серии при этом не удаляются, а продолжают раздаваться!
    Если вы уже удалили старые серии, то предотвратить повторную закачку старых серий можно, отжав галочку в соответствующих местах при запуске нового торрента. По возможности, желательно не удалять старые серии как можно дольше, чтобы релизёр не столько продолжал раздавать старые серии, а смог сконцентрироваться на новых.[url=/forum/viewtopic.php?t=197684]Как закачать отдельный файл из торрента, или докачать ранее пропущенные файлы торрента.[/url]
Продолжительность: 00:43:05
Качество видео: WEB-DLRip
Видеокодек: Xvid
Битрейт видео: ~1251 Кбит/сек
Размер кадра: 720×400 (16:9)
Аудиокодек: MP3
Битрейт аудио: 192 Кбит/сек
Скриншоты:
       
Вне форума [Профиль] [ЛС]
Показать сообщения:    
Ответить на тему

Текущее время: Сегодня 01:08

Часовой пояс: GMT + 3



Вы не можете начинать темы
Вы не можете отвечать на сообщения
Вы не можете редактировать свои сообщения
Вы не можете удалять свои сообщения
Вы не можете голосовать в опросах
Вы не можете прикреплять файлы к сообщениям
Вы не можете скачивать файлы