Сегодня идет свободное скачивание без начисления Download

Однажды в стране чудес / Once Upon a Time in Wonderland (2013) WEB-DLRip [сезон 1 (серии 01-02 из 22?)] (Sony Sci-Fi) (Обновляемая)

Ответить на тему
 
Автор
Сообщение

UndegraundMen ®

Стаж: 5 лет 10 месяцев

Сообщений: 25860

Торрент-статистика

Пост 27-Окт-2013 23:42

[Цитировать]

Однажды в стране чудес / Once Upon a Time in Wonderland (2013) WEB-DLRip [сезон 1 (серии 01-02 из 22?)] (Sony Sci-Fi) (Обновляемая)- Год выпуска: 2013
Жанр: Фэнтези, Приключения, Драма
Перевод: Многоголосый закадровый, профессиональный
Озвучка / Автор перевода: Sony Sci-Fi
Релиз группа: NewStudio

Дата мировой премьеры: 10 октября 2013
Дата российской премьеры: 25 октября 2013
Режиссер: Ральф Хемекер, Пол А. Эдвардс
Актеры: Софи Лоу, Джон Литгоу, Эмма Ригби, Хьюго Стил, Навин Эндрюс, Питер Гадиот, Майкл Соча, Майкл К. Адамс, Гаррет Блэк, Рон Боттитта
Описание фильма:
В викторианском Лондоне красивая и молодая Алиса рассказывает историю о необычной земле, которая существует по ту сторону кроличьей норы. Исчезающий кот, гусеница, курящая кальян, игральные карты и фантастические вещи, которые она видела во время этого приключения, которые невозможны. Конечно, девушку приняли за сумасшедшую. Главная цель врачей — вылечить её, чтобы она забыла всё, что там происходило. Алиса готова забыть все это — особенно болезненную память о джинне, в которого она влюбилась и потеряла навсегда, но красивый и таинственный Сайрус говорит, что в глубине души она знает, что этот мир реальный…
Продолжительность: 1x ~ 00:43:00
Качество видео: WEB-DLRip
Сэмпл: Скачать
Видеокодек: Xvid
Битрейт видео: ~1351 Кбит/сек
Размер кадра: 720x400
Audio Rus: 48 kHz,MP3, 2 ch, 128 Кбит/сек
Audio Eng: 48 kHz,MP3, 2 ch, 128 Кбит/сек
Скриншоты:
             

Mediainfo:

Общее
Полное имя : Once.Upon.a.Time.in.Wonderland.s01\Once.Upon.a.Time.in.Wonderland.s01e01.WEBDLRip.NewStudio.TV.avi
Формат : AVI
Формат/Информация : Audio Video Interleave
Размер файла : 499 Мбайт
Продолжительность : 43 м.
Общий поток : 1621 Кбит/сек
Программа кодирования : VirtualDubMod 1.5.10.2 (build 2540/release)
Библиотека кодирования : VirtualDubMod build 2540/release
Видео
Идентификатор : 0
Формат : MPEG-4 Visual
Профиль формата : Advanced Simple@L5
Параметр BVOP формата : 2
Параметр QPel формата : Нет
Параметр GMC формата : Без точки перехода
Параметр матрицы формата : Default (MPEG)
Идентификатор кодека : XVID
Идентификатор кодека/Подсказка : XviD
Продолжительность : 43 м.
Битрейт : 1351 Кбит/сек
Ширина : 720 пикселей
Высота : 400 пикселей
Соотношение сторон : 16:9
Частота кадров : 23,976 кадра/сек
Цветовое пространство : YUV
Субдискретизация насыщенности : 4:2:0
Битовая глубина : 8 бит
Тип развёртки : Прогрессивная
Метод сжатия : С потерями
Бит/(Пиксели*Кадры) : 0.196
Размер потока : 416 Мбайт (83%)
Библиотека кодирования : XviD 64
Аудио #1
Идентификатор : 1
Формат : MPEG Audio
Версия формата : Version 1
Профиль формата : Layer 3
Режим : Joint stereo
Расширение режима : MS Stereo
Идентификатор кодека : 55
Идентификатор кодека/Подсказка : MP3
Продолжительность : 43 м.
Вид битрейта : Постоянный
Битрейт : 128 Кбит/сек
Каналы : 2 канала
Частота : 48,0 КГц
Метод сжатия : С потерями
Размер потока : 39,4 Мбайт (8%)
Выравнивание : Соединение по промежуткам
Продолжительность промежутка : 42 мс. (1,00 видеокадр)
Время предзагрузки промежутка : 504 мс.
Аудио #2
Идентификатор : 2
Формат : MPEG Audio
Версия формата : Version 1
Профиль формата : Layer 3
Режим : Joint stereo
Расширение режима : MS Stereo
Идентификатор кодека : 55
Идентификатор кодека/Подсказка : MP3
Продолжительность : 43 м.
Вид битрейта : Постоянный
Битрейт : 128 Кбит/сек
Каналы : 2 канала
Частота : 48,0 КГц
Метод сжатия : С потерями
Размер потока : 39,4 Мбайт (8%)
Выравнивание : Соединение по промежуткам
Продолжительность промежутка : 42 мс. (1,00 видеокадр)
Время предзагрузки промежутка : 504 мс.

Внимание! Раздача ведётся путём добавления новых серий

Внимание! Раздача ведётся путём добавления новых серий; при каждом добавлении создаётся новый торрент.
Чтобы начать докачку новой серии, пользователям необходимо сделать следующее:
1. Остановить скачивание;
2. Удалить старый торрент у себя из клиента (старые серии удалять не надо);
3. Скачать новый торрент и запустить его у себя в клиенте вместо старого, при этом указать клиенту путь в старую папку куда и должно происходить скачивание новых серий. Ваш клиент при этом должен произвести хеширование (проверку) старой папки и будет докачивать только те серии, которых у вас ещё нет. Старые серии при этом не удаляются, а продолжают раздаваться! Eсли вы уже удалили старые серии, то предотвратить повторную закачку старых серий можно, отжав галочку в соответствующих местах при запуске нового торрента.
Вне форума [Профиль] [ЛС]
Показать сообщения:    
Ответить на тему

Текущее время: Сегодня 23:44

Часовой пояс: GMT + 3



Вы не можете начинать темы
Вы не можете отвечать на сообщения
Вы не можете редактировать свои сообщения
Вы не можете удалять свои сообщения
Вы не можете голосовать в опросах
Вы не можете прикреплять файлы к сообщениям
Вы не можете скачивать файлы