Сегодня идет свободное скачивание без начисления Download

Последний час / Час ноль / Zero Hour (2013) WEB-DL [720p] [Сезон 1, полный (13 серий)] [Невафильм]

Ответить на тему
 
Автор
Сообщение

UndegraundMen ®

Стаж: 5 лет 3 месяца

Сообщений: 25871

Торрент-статистика

Пост 27-Окт-2013 23:12

[Цитировать]

Последний час / Час ноль / Zero Hour (2013) WEB-DL [720p] [Сезон 1, полный (13 серий)] [Невафильм]-«Взломай код. Спаси мир.»
Год выпуска: 2013
Производство: США
Жанр: Триллер, Драма, Приключения
Перевод: Профессиональный (дублированный) - Невафильм
Язык субтитров: Русский (форсированные)
Вид субтитров: Вшитые отключаемые
Режиссер: Стивен Уильямс, Пьер Морель, Жан Де Сегонзак
Продюсеры: Зак Эстрин, Лоренцо Ди Бонавентура, Мэрилл Х. Карпф
Актеры: Энтони Эдвардс, Кармен Эджого, Скотт Майкл Фостер, Эддисон Тимлин, Джасинда Бэррет
Описание фильма:
Энтузиаст-издатель журнала о паранормальном «Современный скептик» Хэнк Галлистон потратил свою карьеру, следуя за подсказками, разоблачая мифы и раскрывая заговоры. Признанный помешанным на сверхъестественном, он руководствуется девизом «Логика — это компас». Но когда его красивая жена Лейла похищена из своего магазина антикварных часов, Хэнк втягивается в одну из самых интригующих тайн в истории человечества, охватывающую весь мир и прошлые столетия.
Карта сокровищ спрятана внутри одних из часов его жены, и то, к чему она приведет, может вызвать катастрофические последствия. Теперь Хэнк должен расшифровать символы и раскрыть тайны карты, но так, чтобы ответы не попали в плохие руки — руки человека, которого они называют Белым Винсентом. С двумя юными союзниками Рэйчел и Эрроном, а также привлекательным агентом ФБР Беккой Райли, Хэнк поведет их на захватывающую гонку на время, чтобы найти жену и спасти человечество.- -Возраст 0+ - Для любой зрительской аудитории-Релиз от: CasStudio
Дата мировой премьеры: 1 февраля 2013 (ABC)
Дата российской премьеры: 4 октября 2013 (Amedia Premium HD)
Продолжительность: 13x ~ 00:42:00 серия
Качество видео: WEB-DL 720p
Сэмпл: Скачать
Формат: MKV
Видеокодек: MPEG-4 AVC/H.264
Битрейт видео: ~4000 Kb/s
Размер кадра: 1280x720
Аудио Rus, Eng: AC3, 6 ch, 384 kb/s, 48 kHz

Список серий

01 - Пораженный / Strike
02 - Циферблат / Face
03 - Маятник / Pendulum
04 - Цепь / Chain
05 - Нить подвеса / Suspension
06 - Гирька / Weight
07 - Сверим часы / Sync
08 - Спираль / Winding
09 - Балансир / Balance
10 - Спусковой механизм / Escapement
11 - Стрелки / Hands
12 - Собачка / Ratchet
13 - Пружина / Spring

MediaInfo

General
  • Format : Matroska
  • Format version : Version 4 / Version 2
  • File size : 1.49 GiB
  • Duration : 42mn 39s
  • Overall bit rate : 4 997 Kbps
  • Movie name : Zero.Hour.S01E01.720p.WEB-DL.DD5.1.H.264-BS666 (CasStudio.TV)
  • Encoded date : UTC 2013-10-05 02:59:33
  • Writing application : mkvmerge v6.4.1 ('Omega Point') built on Sep 16 2013 22:05:10
  • Writing library : libebml v1.3.0 + libmatroska v1.4.1
  • Attachment : Yes / Yes / Yes
    Video
  • ID : 1
  • Format : AVC
  • Format/Info : Advanced Video Codec
  • Format profile : [url=mailto:High@L3.1]High@L3.1[/url]
  • Format settings, CABAC : No
  • Format settings, ReFrames : 2 frames
  • Codec ID : V_MPEG4/ISO/AVC
  • Duration : 42mn 39s
  • Bit rate : 4 129 Kbps
  • Width : 1 280 pixels
  • Height : 720 pixels
  • Display aspect ratio : 16:9
  • Frame rate mode : Constant
  • Frame rate : 23.976 fps
  • Color space : YUV
  • Chroma subsampling : 4:2:0
  • Bit depth : 8 bits
  • Scan type : Progressive
  • Bits/(Pixel*Frame) : 0.187
  • Stream size : 1.23 GiB (83%)
  • Language : English
  • Default : Yes
  • Forced : No
  • Color primaries : BT.709
  • Transfer characteristics : BT.709
  • Matrix coefficients : BT.709
    Audio
  • ID : 2
  • Format : AC-3
  • Format/Info : Audio Coding 3
  • Mode extension : CM (complete main)
  • Format settings, Endianness : Big
  • Codec ID : A_AC3
  • Duration : 42mn 39s
  • Bit rate mode : Constant
  • Bit rate : 384 Kbps
  • Channel(s) : 6 channels
  • Channel positions : Front: L C R, Side: L R, LFE
  • Sampling rate : 48.0 KHz
  • Bit depth : 16 bits
  • Compression mode : Lossy
  • Stream size : 117 MiB (8%)
  • Language : Russian
  • Default : Yes
  • Forced : No
    Audio
  • ID : 3
  • Format : AC-3
  • Format/Info : Audio Coding 3
  • Mode extension : CM (complete main)
  • Format settings, Endianness : Big
  • Codec ID : A_AC3
  • Duration : 42mn 39s
  • Bit rate mode : Constant
  • Bit rate : 384 Kbps
  • Channel(s) : 6 channels
  • Channel positions : Front: L C R, Side: L R, LFE
  • Sampling rate : 48.0 KHz
  • Bit depth : 16 bits
  • Compression mode : Lossy
  • Stream size : 117 MiB (8%)
  • Language : English
  • Default : No
  • Forced : No
    Text
  • ID : 4
  • Format : ASS
  • Codec ID : S_TEXT/ASS
  • Codec ID/Info : Advanced Sub Station Alpha
  • Compression mode : Lossless
  • Title : Forced ASS
  • Language : Russian
  • Default : Yes
  • Forced : No
    Text
  • ID : 5
  • Format : UTF-8
  • Codec ID : S_TEXT/UTF8
  • Codec ID/Info : UTF-8 Plain Text
  • Title : Forced SRT
  • Language : Russian
  • Default : No
  • Forced : No
Скриншоты:
       
       
Вне форума [Профиль] [ЛС]
Похожие темы
Форум Тема Автор Торрент Отв. Посл. сообщение
./templates/default/images/folder_dl.gif Фильмы 2011-2016 Последний вагон. Весна (Антон Калинкин) [2015, Россия, триллер, WEB-DL 720p] + Original Rus Omen
1 | 0

2 | 1097

2

2016-01-02 08:16
Dracula Последнее
./templates/default/images/folder_dl.gif Обучающее видео Oleg Lav | Как создать флешку восстановления Windows после сбоя из .wim файла работающей ОС (2016) PCRec [H.264/720p] Omen
1 | 0

0 | 659

16

2016-03-09 06:23
Omen Последнее
./templates/default/images/folder_dl.gif Компьютерная литература Михаил Пантаев | Матанализ с человеческим лицом, или Как выжить после предельного перехода. Полный курс математического анализа. Том 2 (2016) [PDF] moralis
1 | 0

0 | 1518

13

2016-03-09 21:50
moralis Последнее
./templates/default/images/folder_dl.gif Справочники, энциклопедии и словари Михаил Пантаев | Матанализ с человеческим лицом, или Как выжить после предельного перехода. Полный курс математического анализа. Том 1 (2015) [PDF] moralis
1 | 0

0 | 1423

9

2016-03-09 21:51
moralis Последнее
./templates/default/images/folder_dl.gif Фантастика, фэнтези, ужасы, мистика Андрей Круз | После (2018) [MP3] }{@R0N
1 | 0

0 | 202

5

2018-03-01 22:43
}{@R0N Последнее
./templates/default/images/folder_dl.gif Новинки (BD|HDTV|DVD) Звёздные войны: Последние джедаи / Star Wars: The Last Jedi (Райан Джонсон) [2017, фантастика, фэнтези, боевик, приключения, UHD BDRemux 2160p] DUB | iTunes Theseus
1 | 0

0 | 329

2

2018-03-15 14:03
Theseus Последнее
Показать сообщения:    
Ответить на тему

Текущее время: Сегодня 06:10

Часовой пояс: GMT + 3



Вы не можете начинать темы
Вы не можете отвечать на сообщения
Вы не можете редактировать свои сообщения
Вы не можете удалять свои сообщения
Вы не можете голосовать в опросах
Вы не можете прикреплять файлы к сообщениям
Вы не можете скачивать файлы