Сегодня идет свободное скачивание без начисления Download

Дракула / Dracula (2013) WEB-DLRip [1 сезон, 2 из 10 серия] NewStudio (обновляемая)

Ответить на тему
 
Автор
Сообщение

Omen ®

Стаж: 5 лет 11 месяцев

Сообщений: 184329

Торрент-статистика

Пост 26-Окт-2013 19:46

[Цитировать]

Дракула / Dracula - Год выпуска: 2013
Жанр: Драма, Ужасы, Триллер
Перевод: Двуголосый закадровый, профессиональный NewStudio
Режиссер: Энди Годдар, Стив Шилл, Брайан Келли
Актеры: Джонатан Риз Майерс, Оливер Джексон-Коэн,Джессика Де Гау, Томас Кречманн, Кэти МакГрат, Нонсо Анози, Виктория Смёрфит, Бен Майлз
Сэмпл
Описание фильма:
Сериал расскажет о Дракуле, когда тот приезжает в Лондон, выдавая себя за американского предпринимателя, развивающего современную науку в викторианском обществе. В действительности он хочет отомстить тем, кто разрушил его жизнь несколькими веками ранее. Однако, есть одно обстоятельство, которое может сорвать его план: Дракула безнадежно влюблен в женщину, которая кажется ему перевоплощением его умершей жены.
Продолжительность: 00:42:00
Качество видео: WEB-DLRip
Видеокодек: Xvid
Битрейт видео: ~1500 Кбит/с
Размер кадра: 720х400
Аудио #1 Русский MP3, 192 Kbps, 2 channels, 48.0 KHz
Аудио #2 Английский: MP3, 192 Kbps, 2 channels, 48.0 KHz

MediaInfo:

Код:
General
Complete name                  : D:\Загрузки\Dracula\Dracula.S01E01.avi
Format                         : AVI
Format/Info                    : Audio Video Interleave
File size                      : 583 MiB
Duration                       : 42mn 56s
Overall bit rate               : 1 900 Kbps
Writing application            : VirtualDubMod 1.5.10.2 (build 2540/release)
Writing library                : VirtualDubMod build 2540/release
Video
ID                             : 0
Format                         : MPEG-4 Visual
Format profile                 : Advanced Simple@L5
Format settings, BVOP          : Yes
Format settings, QPel          : No
Format settings, GMC           : No warppoints
Format settings, Matrix        : Default (MPEG)
Codec ID                       : XVID
Codec ID/Hint                  : XviD
Duration                       : 42mn 56s
Bit rate                       : 1 499 Kbps
Width                          : 720 pixels
Height                         : 400 pixels
Display aspect ratio           : 16:9
Frame rate                     : 29.970 fps
Color space                    : YUV
Chroma subsampling             : 4:2:0
Bit depth                      : 8 bits
Scan type                      : Progressive
Compression mode               : Lossy
Bits/(Pixel*Frame)             : 0.174
Stream size                    : 460 MiB (79%)
Writing library                : XviD 1.2.1 (UTC 2008-12-04)
Audio #1
ID                             : 1
Format                         : MPEG Audio
Format version                 : Version 1
Format profile                 : Layer 3
Mode                           : Joint stereo
Codec ID                       : 55
Codec ID/Hint                  : MP3
Duration                       : 42mn 56s
Bit rate mode                  : Constant
Bit rate                       : 192 Kbps
Channel count                  : 2 channels
Sampling rate                  : 48.0 KHz
Compression mode               : Lossy
Stream size                    : 59.0 MiB (10%)
Alignment                      : Aligned on interleaves
Interleave, duration           : 33 ms (1.00 video frame)
Interleave, preload duration   : 504 ms
Audio #2
ID                             : 2
Format                         : MPEG Audio
Format version                 : Version 1
Format profile                 : Layer 3
Mode                           : Joint stereo
Mode extension                 : MS Stereo
Codec ID                       : 55
Codec ID/Hint                  : MP3
Duration                       : 42mn 56s
Bit rate mode                  : Constant
Bit rate                       : 192 Kbps
Channel count                  : 2 channels
Sampling rate                  : 48.0 KHz
Compression mode               : Lossy
Stream size                    : 59.0 MiB (10%)
Alignment                      : Aligned on interleaves
Interleave, duration           : 33 ms (1.00 video frame)
Interleave, preload duration   : 504 ms
Writing library                : LAME3.99r
Encoding settings              : -m j -V 4 -q 3 -lowpass 18.6 -b 192
715655
Скриншоты:
         
Вне форума [Профиль] [ЛС]
Похожие темы
Форум Тема Автор Торрент Отв. Посл. сообщение
./templates/default/images/folder_dl.gif Фантастика, фэнтези, ужасы, мистика Дракула / Dracula (2000-2005) BDRemux [1080p] [Трилогия] UndegraundMen
1 | 0

0 | 2371

8

2013-04-26 00:01
UndegraundMen Последнее
Показать сообщения:    
Ответить на тему

Текущее время: Сегодня 19:53

Часовой пояс: GMT + 3



Вы не можете начинать темы
Вы не можете отвечать на сообщения
Вы не можете редактировать свои сообщения
Вы не можете удалять свои сообщения
Вы не можете голосовать в опросах
Вы не можете прикреплять файлы к сообщениям
Вы не можете скачивать файлы