Сегодня идет свободное скачивание без начисления Download

Гриффины / Family Guy / Сезон: 12 / Серии: 1-2 из ?? (Сет Макфарлейн / Seth MacFarlane) [2013, Ситком, Чёрный юмор, Буффонада, Комедия, Пародия, WEB-DLRip] MVO (Filiza Studio)

Ответить на тему
 
Автор
Сообщение

Omen ®

Стаж: 5 лет

Сообщений: 190530

Торрент-статистика

Пост 24-Окт-2013 16:00

[Цитировать]

Гриффины / Family Guy - -Страна: США
Жанр: Ситком, Чёрный юмор, Буффонада, Комедия, Пародия
Продолжительность: ~00:22:00
Год выпуска: 2013
Перевод: Профессиональный (многоголосый закадровый) Filiza Studio
Русские субтитры: нет
Режиссёр: Сет Макфарлейн / Seth MacFarlane
Роли озвучивали: Сет Макфарлейн, Алекс Борштейн, Сет Грин, Мила Кунис, Майк Генри-Озвучка студии:
Перевод на русский: Stevvie
Закадровые голоса: darkFIL, Little и Света-Описание: "Гриффины" (Family Guy) - анимационное ТВ-Шоу, созданное Сетом МакФерлайном (Seth MacFarlane) для телеканала FOX. Как нетрудно догадаться, главными героями шоу является семейка Гриффинов: тупой, но полный сумашедших идей, составляющих львиную долю шуток сериала, отец семейства Питер; его любящя и терпеливая жена Лойс, всеми силами пытающаяся превратить Гриффинов в нормальную семью; их интеллектуально развитый не по годам, вынашивающий идею мирового господства младший сын Стьюи; дочь-ботаник, обречённая из-за этого на одиночество и непонимание как в школе так и дома, Мэг; и 13-ти летний отсталый в развитии лет на 10, сын Крис. Также полноценным членом семьи является пёс Брайн - склонный к меланхолии эстет, спокойно наблюдающий с бокалом вина в лапе над приключениями Питера и остальных членов семьи (и это при всём притом, что остальные собаки в сериале не являются очеловеченными)-Ссылка на предыдущие и альтернативные раздачи
-Качество: WEB-DLRip
Формат: AVI
Видео: XviD, 720x400, 23,976 fps, ~1100 kbps, 0.154 b/px
Аудио: AC3, 48Chz, 2 ch, 128 kbps [RUS, Filiza Studio]
Аудио 2: AC3, 48Chz, 2 ch, 128 kbps [ENG, Оригинал]
Субтитры: Нет
--
-

Подробные технические данные

General
Complete name : G:\Family Guy Season 12 (2013) [WEB-DLRip.XviD] [Filiza Studio]\Family.Guy.S12E01.Finders.Keepers.WEB-DLRip.XviD.Filiza Studio.avi
Format : AVI
Format/Info : Audio Video Interleave
File size : 203 MiB
Duration : 21mn 36s
Overall bit rate : 1 311 Kbps
Writing application : VirtualDubMod 1.5.10.2 (build 2542/release)
Writing library : VirtualDubMod build 2542/release
Video
ID : 0
Format : MPEG-4 Visual
Format profile : Advanced Simple@L5
Format settings, BVOP : 2
Format settings, QPel : No
Format settings, GMC : No warppoints
Format settings, Matrix : Default (H.263)
Codec ID : XVID
Codec ID/Hint : XviD
Duration : 21mn 36s
Bit rate : 1 041 Kbps
Width : 720 pixels
Height : 400 pixels
Display aspect ratio : 16:9
Frame rate : 23.976 fps
Color space : YUV
Chroma subsampling : 4:2:0
Bit depth : 8 bits
Scan type : Progressive
Compression mode : Lossy
Bits/(Pixel*Frame) : 0.151
Stream size : 161 MiB (79%)
Writing library : XviD 1.2.1 (UTC 2008-12-04)
Audio #1
ID : 1
Format : AC-3
Format/Info : Audio Coding 3
Mode extension : CM (complete main)
Format settings, Endianness : Big
Codec ID : 2000
Duration : 21mn 36s
Bit rate mode : Constant
Bit rate : 128 Kbps
Channel(s) : 2 channels
Channel positions : Front: L R
Sampling rate : 48.0 KHz
Bit depth : 16 bits
Compression mode : Lossy
Stream size : 19.8 MiB (10%)
Alignment : Split accross interleaves
Interleave, duration : 42 ms (1.00 video frame)
Interleave, preload duration : 500 ms
Audio #2
ID : 2
Format : AC-3
Format/Info : Audio Coding 3
Mode extension : CM (complete main)
Format settings, Endianness : Big
Codec ID : 2000
Duration : 21mn 36s
Bit rate mode : Constant
Bit rate : 128 Kbps
Channel(s) : 2 channels
Channel positions : Front: L R
Sampling rate : 48.0 KHz
Bit depth : 16 bits
Compression mode : Lossy
Stream size : 19.8 MiB (10%)
Alignment : Split accross interleaves
Interleave, duration : 42 ms (1.00 video frame)
Interleave, preload duration : 500 ms

Внимание! Раздача ведется путем добавления новых серий!

Чтобы начать докачку новой серии, пользователям необходимо сделать следующее:
1) Остановить скачивание,
2) Удалить старый торрент у себя из клиента - старые серии удалять не надо!
3) Скачать новый торрент и запустить его у себя в клиенте вместо старого, при этом указать клиенту путь в старую папку куда и должно происходить скачивание новых серий.
Ваш клиент при этом должен произвести хеширование старой папки (если это не произойдет - нажмите "Обновить хеш"), и будет докачивать только те серии которых у вас ещё нет. Старые файлы при этом не удаляются, а продолжают раздаваться!
По возможности, желательно не удалять старые серии как можно дольше, чтобы релизер не столько продолжал раздавать старые материалы, а смог сконцентрироваться на новых.

Список серий

01. Finders Keepers / Искатели Cокровищ
02. Vestigial Peter / Рудиментарный Питер
Вне форума [Профиль] [ЛС]
Показать сообщения:    
Ответить на тему

Текущее время: Сегодня 05:26

Часовой пояс: GMT + 3



Вы не можете начинать темы
Вы не можете отвечать на сообщения
Вы не можете редактировать свои сообщения
Вы не можете удалять свои сообщения
Вы не можете голосовать в опросах
Вы не можете прикреплять файлы к сообщениям
Вы не можете скачивать файлы