Сегодня идет свободное скачивание без начисления Download

Подпольная империя / Boardwalk Empire Сезон 2 эпизод 1-12(12)(Тимоти Ван Паттен, Аллен Култер) [2011 г., криминальная драма, HDTVRip](Первый Канал)

Ответить на тему
 
Автор
Сообщение

Delia ®

Пол:

Стаж: 8 лет 6 месяцев

Сообщений: 1822

Торрент-статистика

Пост 15-Окт-2011 13:50

[Цитировать]

Подпольная империя / Boardwalk Empire
Год выпуска: 2011
Страна: США
Жанр: криминальная драма
Продолжительность: 55 мин
Перевод: Профессиональный многоголосый закадровый(Первый Канал)
Субтитры: нет
-Режиссёр: Тимоти Ван Паттен, Аллен Култер
Сценаристы: Теренс Уинтер
Продюсер: Мартин Скорсезе
-В ролях:
Анна Катарина, Стив Бушеми, Майкл Питт, Тодд Фредерикс, Уильям Хилл, Джек Хьюстон, Николас Мартино, Пьер О'Фэррелл, Кен Следик, Ши Уигхэм
Описание:
События сериала происходят в 1920 году, на рассвете сухого закона. Главный герой, Наки Томпсон – негласный правитель Атлантик-Сити, в равной степени гангстер и политик.
-Качество: HDTVRip
Формат: AVI
Видео кодек: XviD
Аудио кодек: MP3
Видео: 720x400 (1.80:1), 23.976 fps, XviD build 64 ~1467 kbps avg, 0.21 bit/pixel
Аудио Rus: 48 kHz, MPEG Layer 3, 2 ch, ~128.00 kbps avg
Аудио Eng: 48 kHz, MPEG Layer 3, 2 ch, ~128.00 kbps avg
-Релиз: - -

MI

General
Complete name : H:\Фтп 3\Work\NewStudio\Boardwalk Empire Season 2\Boardwalk.Empire.s02e01.hdtvrip.NewStudio.TV.avi
Format : AVI
Format/Info : Audio Video Interleave
File size : 699 MiB
Duration : 56mn 13s
Overall bit rate : 1 738 Kbps
Writing application : VirtualDubMod 1.5.10.2 (build 2540/release)
Writing library : VirtualDubMod build 2540/release
Video
ID : 0
Format : MPEG-4 Visual
Format profile : Advanced Simple@L5
Format settings, BVOP : Yes
Format settings, QPel : No
Format settings, GMC : No warppoints
Format settings, Matrix : Default (MPEG)
Codec ID : XVID
Codec ID/Hint : XviD
Duration : 56mn 13s
Bit rate : 1 468 Kbps
Width : 720 pixels
Height : 400 pixels
Display aspect ratio : 16:9
Frame rate : 23.976 fps
Color space : YUV
Chroma subsampling : 4:2:0
Bit depth : 8 bits
Scan type : Progressive
Bits/(Pixel*Frame) : 0.213
Stream size : 591 MiB (84%)
Writing library : XviD 64
Audio #1
ID : 1
Format : MPEG Audio
Format version : Version 1
Format profile : Layer 3
Mode : Joint stereo
Mode extension : MS Stereo
Codec ID : 55
Codec ID/Hint : MP3
Duration : 56mn 13s
Bit rate mode : Constant
Bit rate : 128 Kbps
Channel(s) : 2 channels
Sampling rate : 48.0 KHz
Stream size : 51.5 MiB (7%)
Alignment : Aligned on interleaves
Interleave, duration : 42 ms (1.00 video frame)
Interleave, preload duration : 504 ms
Audio #2
ID : 2
Format : MPEG Audio
Format version : Version 1
Format profile : Layer 3
Mode : Joint stereo
Mode extension : MS Stereo
Codec ID : 55
Codec ID/Hint : MP3
Duration : 56mn 13s
Bit rate mode : Constant
Bit rate : 128 Kbps
Channel(s) : 2 channels
Sampling rate : 48.0 KHz
Stream size : 51.5 MiB (7%)
Alignment : Aligned on interleaves
Interleave, duration : 42 ms (1.00 video frame)
Interleave, preload duration : 504 ms

Список серий

  • 21
  • Ourselves Alone
  • A Dangerous Maid

Скриншоты

     

Внимание! Раздача ведётся путём добавления новых серий!

Внимание! Раздача ведётся путём добавления новых серий; при каждом добавлении создётся новый торрент. Чтобы начать докачку новой серии, пользователям необходимо сделать следующее: (1) остановить скачивание, (2) удалить старый торрент у себя из клиента (старые серии удалять не надо), (3) скачать новый торрент и запустить его у себя в клиенте вместо старого, при этом указать клиенту путь в старую папку куда и должно происходить скачивание новых серий.
Ваш клиент при этом должен произвести хеширование (проверку) старой папки (если не производит сам - помогите ему сделать это), и будет докачивать только те серии которых у вас ещё нет. Старые серии при этом не удаляются, а продолжают раздаваться!
Eсли вы уже удалили старые серии, то предотвратить повторную закачку старых серий можно, отжав галочку в соответсвующих местах при запуске нового торрента.
Добавлена 12 серия!

_________________
Человек – это канат, натянутый между животным и сверхчеловеком, – канат над пропастью.
В человеке ценно то, что он мост, а не цель. Фридрих Ницше


Последний раз редактировалось: Delia (2011-11-03 10:00), всего редактировалось 3 раз(а)
Вне форума [Профиль] [ЛС]
Показать сообщения:    
Ответить на тему

Текущее время: Сегодня 15:04

Часовой пояс: GMT + 3



Вы не можете начинать темы
Вы не можете отвечать на сообщения
Вы не можете редактировать свои сообщения
Вы не можете удалять свои сообщения
Вы не можете голосовать в опросах
Вы не можете прикреплять файлы к сообщениям
Вы не можете скачивать файлы