Сегодня идет свободное скачивание без начисления Download

Бриклберри / Brickleberry (2013) WEB-DLRip (Сезон 2, серии 07 из 13) (NewStudio) (обновляемая) [18+]

Ответить на тему
 
Автор
Сообщение

Omen ®

Стаж: 5 лет

Сообщений: 190529

Торрент-статистика

Пост 18-Окт-2013 17:38

[Цитировать]

Бриклберри / Brickleberry- Страна: США
Год выпуска: 2013
Жанр: Комедия, для взрослых, ненормативная лексика
Перевод: Профессиональный двухголосый закадровый - NewStudio
Внимание! Присутствует ненормативная лексика!
Возрастное ограничение: 18+

Режиссер: Роджер Блэк
Роли озвучивали: Дэниэл Тош, Роджер Блэк, Дэвид Хэрман, Том Кенни, Кэйтлин Олсен и др.
Описание:
История строится вокруг рейнджеров-раздолбаев, чудом остающихся на своих рабочих местах, которые столкнулись с закрытием своего парка. На помощь им приходит новенькая девушка-рейнджер, чья цель — преобразить и сохранить заповедник. Всё это выглядит особо комичным, ведь зачастую, лесу и его жителям, в большей степени, угрожают те, кто должен был охранять их.
СЭМПЛ
Продолжительность: ~ 00:22:00 каждая серия
Качество видео: WEB-DLRip
Формат: AVI
Видео: 720x400 (16:9), 23.976 fps, XviD ~1326 kbps, ~0.192 bit/pixel
Аудио: 48 kHz, MPEG Layer 3, 2 ch, 128 kbps CBR (Русский, закадровый)
Аудио: 48 kHz, MPEG Layer 3, 2 ch, 128 kbps CBR (Английский)
Релиз:
Озвучка: Константин Погодаев, Анна Тух
Автор перевода: Анна Тимонькина

Тех. данные (MI)

Общее
Brickleberry.s02e01.webdl.NewStudio.TV.avi
Формат : AVI
Формат/Информация : Audio Video Interleave
Размер файла : 250 Мбайт
Продолжительность : 21 м.
Общий поток : 1596 Кбит/сек
Программа кодирования : VirtualDubMod 1.5.10.2 (build 2540/release)
Библиотека кодирования : VirtualDubMod build 2540/release
Видео
Идентификатор : 0
Формат : MPEG-4 Visual
Профиль формата : Advanced Simple@L5
Параметр BVOP формата : 2
Параметр QPel формата : Нет
Параметр GMC формата : Без точки перехода
Параметр матрицы формата : Default (MPEG)
Идентификатор кодека : XVID
Идентификатор кодека/Подсказка : XviD
Продолжительность : 21 м.
Битрейт : 1326 Кбит/сек
Ширина : 720 пикселей
Высота : 400 пикселей
Соотношение сторон : 16:9
Частота кадров : 23,976 кадра/сек
Цветовое пространство : YUV
Субдискретизация насыщенности : 4:2:0
Битовая глубина : 8 бит
Тип развёртки : Прогрессивная
Метод сжатия : С потерями
Бит/(Пиксели*Кадры) : 0.192
Размер потока : 208 Мбайт (83%)
Библиотека кодирования : XviD 64
Аудио #1
Идентификатор : 1
Формат : MPEG Audio
Версия формата : Version 1
Профиль формата : Layer 3
Режим : Joint stereo
Расширение режима : MS Stereo
Идентификатор кодека : 55
Идентификатор кодека/Подсказка : MP3
Продолжительность : 21 м.
Вид битрейта : Постоянный
Битрейт : 128 Кбит/сек
Каналы : 2 канала
Частота : 48,0 КГц
Метод сжатия : С потерями
Размер потока : 20,1 Мбайт (8%)
Выравнивание : Соединение по промежуткам
Продолжительность промежутка : 42 мс. (1,00 видеокадр)
Время предзагрузки промежутка : 504 мс.
Аудио #2
Идентификатор : 2
Формат : MPEG Audio
Версия формата : Version 1
Профиль формата : Layer 3
Режим : Joint stereo
Расширение режима : MS Stereo
Идентификатор кодека : 55
Идентификатор кодека/Подсказка : MP3
Продолжительность : 21 м.
Вид битрейта : Постоянный
Битрейт : 128 Кбит/сек
Каналы : 2 канала
Частота : 48,0 КГц
Метод сжатия : С потерями
Размер потока : 20,1 Мбайт (8%)
Выравнивание : Соединение по промежуткам
Продолжительность промежутка : 42 мс. (1,00 видеокадр)
Время предзагрузки промежутка : 504 мс.
Библиотека кодирования : LAME3.99r
Настройки программы : -m j -V 4 -q 2 -lowpass 17 -b 128

Список серий


01. Miracle Lake / Чудо Озеро
02. The Comeback / Возвращение
03. Woody's Girl / Девушка Вуди
04. Trailer Park / Парк трейлеров
05. Crippleberry / Парк Калек
06. Ranger Games / Игры рейнджеров

Внимание! Раздача ведётся путём добавления новых серий

Внимание! Раздача ведётся путём добавления новых серий; при каждом добавлении создаётся новый торрент.
Чтобы начать докачку новой серии, пользователям необходимо сделать следующее:
1. Остановить скачивание;
2. Удалить старый торрент у себя из клиента (старые серии удалять не надо);
3. Скачать новый торрент и запустить его у себя в клиенте вместо старого, при этом указать клиенту путь в старую папку куда и должно происходить скачивание новых серий. Ваш клиент при этом должен произвести хеширование (проверку) старой папки и будет докачивать только те серии, которых у вас ещё нет. Старые серии при этом не удаляются, а продолжают раздаваться! Eсли вы уже удалили старые серии, то предотвратить повторную закачку старых серий можно, отжав галочку в соответствующих местах при запуске нового торрента.
Скриншоты:
         
Вне форума [Профиль] [ЛС]
Показать сообщения:    
Ответить на тему

Текущее время: Сегодня 14:15

Часовой пояс: GMT + 3



Вы не можете начинать темы
Вы не можете отвечать на сообщения
Вы не можете редактировать свои сообщения
Вы не можете удалять свои сообщения
Вы не можете голосовать в опросах
Вы не можете прикреплять файлы к сообщениям
Вы не можете скачивать файлы