Сегодня идет свободное скачивание без начисления Download

Декстер / Dexter / Сезон: 6 / Серии: 1-6 (12) (John Dahl / Джон Дал) [2011, триллер, драма, криминал, детектив, HDTVRip] (NovaFilm)

Ответить на тему
 
Автор
Сообщение

Delia ®

Пол:

Стаж: 8 лет 1 месяц

Сообщений: 1822

Торрент-статистика

Пост 12-Окт-2011 18:08

[Цитировать]

--Декстер / Dexter-- Год выпуска: 2011
Страна: США
Жанр: триллер, драма, криминал, детектив
Продолжительность: ~ 42 минуты
Перевод: Профессиональный (многоголосный закадровый) - NovaFilm
Субтитры: Нет-Режиссёр: John Dahl. / Джон Дал-В ролях: Michael C. Hall, Jennifer Carpenter, Desmond Harrington, C.S. Lee, Lauren V�lez, David Zayas, James Remar и др.-Описание: Продолжение истории самого главного убийцы Америки Декстера Моргана. Он все так же умен, расчетлив и хладнокровен. Он по-прежнему придерживается своего кодекса о том, что не должны пострадать невинные люди. Однако, потенциальные жертвы Декстера также становятся все опаснее и изворотливее.-Качество: HDTVRip
Формат: AVI
Видео кодек: XviD
Аудио кодек: AC3
Видео: 720x400 (16:9), 23.976 fps, ~1300 kbps, ~0.19 bit/pixel
Аудио: 48 kHz, 2 ch, ~192 kbps /NovaFilm/
Аудио: 48 kHz, 2 ch, ~192 kbps /Original/-
Озвучка: pozakazu-тв
Перевод: hatifnatten- Сэмпл / ImDB / Кинопоиск-

Список серий

  • Those Kinds of Things / Прописные Истины

Скриншоты

     

MediaInfo

Общее
Полное имя : D:\dexter.s06e01.hdtv.rus.eng.novafilm.tv.avi
Формат : AVI
Формат/Информация : Audio Video Interleave
Размер файла : 677 Мбайт
Продолжительность : 54 м.
Общий поток : 1723 Кбит/сек
Программа кодирования : VirtualDubMod 1.5.10.2 (build 2542/release)
Библиотека кодирования : VirtualDubMod build 2542/release
Видео
Идентификатор : 0
Формат : MPEG-4 Visual
Параметр BVOP формата : 1
Параметр QPel формата : Нет
Параметр GMC формата : Без точки перехода
Параметр матрицы формата : Default (H.263)
Режим смешивания : Сжатый битовый поток
Идентификатор кодека : DX50
Идентификатор кодека/Подсказка : DivX 5
Продолжительность : 54 м.
Битрейт : 1325 Кбит/сек
Ширина : 720 пикс.
Высота : 400 пикс.
Соотношение сторон : 16:9
Частота кадров : 23,976 кадр/сек
Цветовое пространство : YUV
Подвыборка цветности : 4:2:0
Битовая глубина : 8 бит
Тип развёртки : Прогрессивная
Метод сжатия : С потерями
Бит/(Пиксели*Кадры) : 0.192
Размер потока : 521 Мбайт (77%)
Библиотека кодирования : DivX 6.8.3-6.8.4 (UTC 2008-06-07)
Аудио #1
Идентификатор : 1
Формат : AC-3
Формат/Информация : Audio Coding 3
Расширение режима : CM (complete main)
Идентификатор кодека : 2000
Продолжительность : 54 м.
Вид битрейта : Постоянный
Битрейт : 192 Кбит/сек
Каналы : 2 канала
Расположение каналов : Front: L R
Частота : 48,0 КГц
Битовая глубина : 16 бит
Метод сжатия : С потерями
Размер потока : 75,5 Мбайт (11%)
Выравнивание : Разделение по промежуткам
Продолжительность промежутка : 42 мс. (1,00 видеокадр)
Время предзагрузки промежутка : 500 ms
Аудио #2
Идентификатор : 2
Формат : AC-3
Формат/Информация : Audio Coding 3
Расширение режима : CM (complete main)
Идентификатор кодека : 2000
Продолжительность : 54 м.
Вид битрейта : Постоянный
Битрейт : 192 Кбит/сек
Каналы : 2 канала
Расположение каналов : Front: L R
Частота : 48,0 КГц
Битовая глубина : 16 бит
Метод сжатия : С потерями
Размер потока : 75,5 Мбайт (11%)
Выравнивание : Разделение по промежуткам
Продолжительность промежутка : 42 мс. (1,00 видеокадр)
Время предзагрузки промежутка : 500 ms

Внимание! Раздача ведется путём добавления новых серий.

Внимание! Раздача ведётся путём добавления новых серий; при каждом добавлении создётся новый торрент. Чтобы начать докачку новой серии, пользователям необходимо сделать следующее:-1) остановить скачивание,
2) удалить старый торрент у себя из клиента (старые серии удалять не надо),
3) скачать новый торрент и запустить его у себя в клиенте вместо старого, при этом указать клиенту путь в старую папку куда и должно происходить скачивание новых серий.
Ваш клиент при этом должен произвести хеширование (проверку) старой папки (если не производит сам - помогите ему сделать это), и будет докачивать только те серии которых у вас ещё нет. Старые серии при этом не удаляются, а продолжают раздаваться!
Eсли вы уже удалили старые серии, то предотвратить повторную закачку старых серий можно, отжав галочку в соответсвующих местах при запуске нового торрента.
-
Добавлена 6 серия!

_________________
Человек – это канат, натянутый между животным и сверхчеловеком, – канат над пропастью.
В человеке ценно то, что он мост, а не цель. Фридрих Ницше


Последний раз редактировалось: Delia (2012-03-13 09:03), всего редактировалось 3 раз(а)
Вне форума [Профиль] [ЛС]
Показать сообщения:    
Ответить на тему

Текущее время: Сегодня 06:17

Часовой пояс: GMT + 3



Вы не можете начинать темы
Вы не можете отвечать на сообщения
Вы не можете редактировать свои сообщения
Вы не можете удалять свои сообщения
Вы не можете голосовать в опросах
Вы не можете прикреплять файлы к сообщениям
Вы не можете скачивать файлы