Сегодня идет свободное скачивание без начисления Download

Ходячие мертвецы / The Walking Dead (2013) WEB-DL [720p] (Сезон 4, Серия 1) [FOX/UATeam] |Обновляемая|

Ответить на тему
 
Автор
Сообщение

UndegraundMen ®

Стаж: 5 лет 4 месяца

Сообщений: 25870

Торрент-статистика

Пост 16-Окт-2013 11:15

[Цитировать]

Ходячие мертвецы / The Walking Dead (2013) WEB-DL [720p] [Сезон 4, Серия 1]- Русское название: Ходячие мертвецы
Оригинальное название: The Walking Dead
Год выпуска: 2013
Страна: США / American Movie Classics (AMC), Circle of Confusion, Valhalla Motion Pictures
Жанр: ужасы, мистика, триллер-Режиссер: Эрнест Р. Дикерсон, Билл Джирхарт, Гай Ферленд
Актеры: Эндрю Линкольн, Сара Уэйн Кэллис, Лори Холден, Стивен Юн, Чендлер Риггз, Норман Ридус, Айрон Э. Синглтон, Мелисса Сюзанн МакБрайд, Лорен Коэн-Описание фильма:
Сериал рассказывает историю жизни семьи шерифа после того, как «зомби» — эпидемия апокалипсических масштабов захлестнула земной шар. Шериф Рик Граймс путешествует со своей семьей и небольшой группой выживших в поисках безопасного места для жизни. Но постоянный страх смерти каждый день приносит тяжелые потери, заставляя героев почувствовать глубины человеческой жестокости. Рик пытается спасти свою семью, и открывает для себя, что всепоглощающий страх тех, кто выжил, может быть опаснее бессмысленных мертвецов, бродящих по земле.-Продолжительность: 00:44:19
Перевод: Профессиональный (многоголосый) / Оригинал (английский)
Субтитры: Английские [Full]- -Качество: WEB-DL [720p]
Видео: AVC; 1280x718; 4008 kbps; (16:9); 23.976 fps
Аудио#1: [RUS] AC3 5.1; 48 kHz, 384 Кбит/сек; 16 bits |FOX|
Аудио#2: [UKR] AC3 5.1; 48 kHz, 384 Кбит/сек; 16 bits |UA Team|
Аудио#3: [ENG] AC3 5.1; 48 kHz, 384 Кбит/сек; 16 bits |Оригинал|

Список серий:

Код:
[b]01.[/b] 30 Days Without an Accident

MediaInfo

Код:
General
Unique ID                                : 225411501251302544411806049802755491750 (0xA994AD0ECA0E00BEB5A34E85DC0FC7A6)
Complete name                            : D:\The.Walking.Dead.S04.720p.WEB-DL\The.Walking.Dead.S04E01.30.720p.WEB-DL.mkv
Format                                   : Matroska
Format version                           : Version 2
File size                                : 1.58 GiB
Duration                                 : 43mn 3s
Overall bit rate                         : 5 265 Kbps
Movie name                               : The Walking Dead 4x01 (2013)
Encoded date                             : UTC 2013-10-15 06:19:16
Writing application                      : mkvmerge v5.8.0 ('No Sleep / Pillow') built on Sep  2 2012 15:37:04
Writing library                          : libebml v1.2.3 + libmatroska v1.3.0
Attachment                               : Yes
Video
ID                                       : 1
Format                                   : AVC
Format/Info                              : Advanced Video Codec
Format profile                           : [url=mailto:High@L3.1]High@L3.1[/url]
Format settings, CABAC                   : No
Format settings, ReFrames                : 2 frames
Muxing mode                              : Header stripping
Codec ID                                 : V_MPEG4/ISO/AVC
Duration                                 : 43mn 3s
Bit rate                                 : 4 008 Kbps
Width                                    : 1 280 pixels
Height                                   : 718 pixels
Display aspect ratio                     : 16:9
Frame rate mode                          : Constant
Frame rate                               : 23.976 fps
Color space                              : YUV
Chroma subsampling                       : 4:2:0
Bit depth                                : 8 bits
Scan type                                : Progressive
Bits/(Pixel*Frame)                       : 0.182
Stream size                              : 1.21 GiB (76%)
Title                                    : The Walking Dead 4x01
Language                                 : English
Default                                  : Yes
Forced                                   : No
Color primaries                          : BT.709
Transfer characteristics                 : BT.709
Matrix coefficients                      : BT.709
Audio #1
ID                                       : 2
Format                                   : AC-3
Format/Info                              : Audio Coding 3
Mode extension                           : CM (complete main)
Format settings, Endianness              : Big
Muxing mode                              : Header stripping
Codec ID                                 : A_AC3
Duration                                 : 43mn 3s
Bit rate mode                            : Constant
Bit rate                                 : 384 Kbps
Channel count                            : 6 channels
Channel positions                        : Front: L C R, Side: L R, LFE
Sampling rate                            : 48.0 KHz
Bit depth                                : 16 bits
Compression mode                         : Lossy
Stream size                              : 118 MiB (7%)
Title                                    : FOX
Language                                 : Russian
Default                                  : Yes
Forced                                   : No
Audio #2
ID                                       : 3
Format                                   : AC-3
Format/Info                              : Audio Coding 3
Mode extension                           : CM (complete main)
Format settings, Endianness              : Big
Muxing mode                              : Header stripping
Codec ID                                 : A_AC3
Duration                                 : 43mn 3s
Bit rate mode                            : Constant
Bit rate                                 : 384 Kbps
Channel count                            : 6 channels
Channel positions                        : Front: L C R, Side: L R, LFE
Sampling rate                            : 48.0 KHz
Bit depth                                : 16 bits
Compression mode                         : Lossy
Stream size                              : 118 MiB (7%)
Title                                    : UATEAM.TV
Language                                 : Ukrainian
Default                                  : No
Forced                                   : No
Audio #3
ID                                       : 4
Format                                   : AC-3
Format/Info                              : Audio Coding 3
Mode extension                           : CM (complete main)
Format settings, Endianness              : Big
Muxing mode                              : Header stripping
Codec ID                                 : A_AC3
Duration                                 : 43mn 3s
Bit rate mode                            : Constant
Bit rate                                 : 384 Kbps
Channel count                            : 6 channels
Channel positions                        : Front: L C R, Side: L R, LFE
Sampling rate                            : 48.0 KHz
Bit depth                                : 16 bits
Compression mode                         : Lossy
Stream size                              : 118 MiB (7%)
Title                                    : Оригинал
Language                                 : English
Default                                  : No
Forced                                   : No
Text
ID                                       : 5
Format                                   : UTF-8
Codec ID                                 : S_TEXT/UTF8
Codec ID/Info                            : UTF-8 Plain Text
Title                                    : Full
Language                                 : English
Default                                  : No
Forced                                   : No
Скриншоты:-          -Внимание!!! Раздача ведется путем добавления новых серий. При каждом добавлении создается новый торрент.-
Вне форума [Профиль] [ЛС]
Показать сообщения:    
Ответить на тему

Текущее время: Сегодня 13:51

Часовой пояс: GMT + 3



Вы не можете начинать темы
Вы не можете отвечать на сообщения
Вы не можете редактировать свои сообщения
Вы не можете удалять свои сообщения
Вы не можете голосовать в опросах
Вы не можете прикреплять файлы к сообщениям
Вы не можете скачивать файлы