Сегодня идет свободное скачивание без начисления Download

Пиноккио / Pinocchio ( Энцо Д’Ало ) (2012, Детский ) HDRip

Ответить на тему
 
Автор
Сообщение

Витек1 ®

Пол:

Стаж: 4 года 8 месяцев

Сообщений: 455

Откуда: Житомир

Торрент-статистика

Пост 15-Окт-2013 19:36

[Цитировать]

Пиноккио / Pinocchio - Год выпуска: 2012
Жанр: Детский
Описание:
Однажды безоблачной ночью старый Джепетто замечтался, глядя в небеса на сверкающие звезды. Он загадал желание, чтобы вырезанный из дерева мальчик Пиноккио ожил и стал ему настоящим сыном, о котором он мечтал всю свою жизнь. И его желание, наконец, сбылось. Поучительную сказку про Пиноккио знают дети и взрослые всего мира. Маленький деревянный человечек заставил поверить людей в чудеса и доказал, что добро всегда побеждает, а мечты сбываются, нужно только сильно верить в это.
Режиссер: Энцо Д’Ало
Персонажи: Роберт Нэйлор, Рокко Папалео, Паоло Руффини

Продолжительность: 01:20:32
Качество видео: HDRip
Перевод: Многоголосый закадровый
Язык субтитров: Русский
Вид субтитров: Отдельным файлом
Видеокодек: Xvid
Битрейт видео: ~2031 Кбит/сек
Размер кадра: 720x384
Аудиокодек: AC3 2.0
Битрейт аудио: 448 Кбит/сек
Сэмпл: Ссылка

MI

Общее
Полное имя : Пиноккио\Пиноккио.avi
Формат : AVI
Формат/Информация : Audio Video Interleave
Размер файла : 1,46 Гбайт
Продолжительность : 1 ч. 23 м.
Общий поток : 2489 Кбит/сек
Программа кодирования : VirtualDubModRus 1.5.10.2 (build 2542/release)
Библиотека кодирования : VirtualDubMod build 2542/release
Видео
Идентификатор : 0
Формат : MPEG-4 Visual
Профиль формата : Advanced Simple@L5
Параметр BVOP формата : 1
Параметр QPel формата : Нет
Параметр GMC формата : Без точки перехода
Параметр матрицы формата : Выборочная
Идентификатор кодека : XVID
Идентификатор кодека/Подсказка : XviD
Продолжительность : 1 ч. 23 м.
Битрейт : 2031 Кбит/сек
Ширина : 720 пикселей
Высота : 384 пикселя
Соотношение сторон : 1,85:1
Частота кадров : 24,000 кадра/сек
Цветовое пространство : YUV
Субдискретизация насыщенности : 4:2:0
Битовая глубина : 8 бит
Тип развёртки : Прогрессивная
Метод сжатия : С потерями
Бит/(Пиксели*Кадры) : 0.306
Размер потока : 1,19 Гбайт (82%)
Библиотека кодирования : XviD 73
Аудио
Идентификатор : 1
Формат : AC-3
Формат/Информация : Audio Coding 3
Расширение режима : CM (complete main)
Параметр Endianness формата : Big
Идентификатор кодека : 2000
Продолжительность : 1 ч. 23 м.
Вид битрейта : Постоянный
Битрейт : 448 Кбит/сек
Каналы : 6 каналов
Расположение каналов : Front: L C R, Side: L R, LFE
Частота : 48,0 КГц
Битовая глубина : 16 бит
Метод сжатия : С потерями
Размер потока : 269 Мбайт (18%)
Выравнивание : Разделение по промежуткам
Продолжительность промежутка : 42 мс. (1,00 видеокадр)
Время предзагрузки промежутка : 500 мс.
Скриншоты:
         

_________________
Скачал сам, дай скачать другому!!!Не забудь сказать -
Вне форума [Профиль] [ЛС]
Показать сообщения:    
Ответить на тему

Текущее время: Сегодня 11:50

Часовой пояс: GMT + 3



Вы не можете начинать темы
Вы не можете отвечать на сообщения
Вы не можете редактировать свои сообщения
Вы не можете удалять свои сообщения
Вы не можете голосовать в опросах
Вы не можете прикреплять файлы к сообщениям
Вы не можете скачивать файлы