Сегодня идет свободное скачивание без начисления Download

Блю Маунтин Стэйт / Blue Mountain State / Сезон 3 / Серии 1-11 (13) (John Fortenberry) [2011 г., комедия, WEB-DLRip] (greys2008&Arkadiy)

Ответить на тему
 
Автор
Сообщение

Omen ®

Стаж: 6 лет 1 месяц

Сообщений: 184308

Торрент-статистика

Пост 11-Окт-2011 10:22

[Цитировать]

Блю Маунтин Стэйт (Штат Голубая гора)
Blue Mountain State

Русское название: Блю Маунтин Стэйт (Штат Голубая гора)
Оригинальное название: Blue Mountain State
Год выхода: 2011
Производство: США
Жанр: Комедия
Сезон: 3
Серии: 01-11 из 13 серий
Продолжительность: ~ 23:00 мин серия
Режиссер: Джон Фортенберри
Озвучка: Одноголосая -В ролях:
Дэрин Брукс, Алан Ритчсон, Дениз Ричардс, Крис Романо и Эд Маринаро.-Описание:
Сериал рассказывает о друзьях, которые поступили в колледж Мидвестерна благодаря футбольным стипендиям.
Начало третьего учебного года принесло свои сюрпризы. Алекса перевели в основной состав и назначили капитаном команды. Тэд, в свою очередь, не попав в профи, слезно умоляет тренера взять его обратно. Бывшие супруги Дэниэлс переживают новый всплеск в своих отношениях. Мэри Джо пристрастилась к однополой любви. А Сэмми... все еще ищет себя.
--
-Качество: WEB-DLRip
Формат: AVI
Видео кодек: XviD
Аудио кодек: MP3
Видео: 624x352 (1.77:1), 23.976 fps, XviD MPEG-4, ~1200 kbps, 0.22 bit/pixel
Аудио RUS: 48 kHz, MPEG Layer 3, 2 ch, ~128 kbps
Аудио ENG: 48 kHz, MPEG Layer 3, 2 ch, ~128 kbps-Эпизод 0302 - сник-пик (в формате полноценной серии) показанный на 4 дня раньше официальной премьеры.-

Доп. информация:


Перевод и озвучка: Arkadiy
Редакция: greys2008
-

Краткое описание серий

3.01 "The Captain"

"Капитан"
Пришел новый учебный год. Алекс пытается попрочней осесть на скамейке запасных; тренеру придется выдержать конкуренцию с новичком, присланным в будущем заменить его; Тэд не нашел себя в НФЛ и хочет вернуться в родную команду. Что из этого всего выйдет?

3.02 "Dic Pics"

"Фотки членов"
Когда вам нравиться девушка вы приглашаете ее в кино или на ужин, на крайний случай в клуб. Но наши герои нашли более простой и действенный способ завоевать внимание пышногрудых красавиц.

3.03 "Thad's Back"

"Возвращение Тэда"
Первое поражение Козлов при новом лидере. Команда в отчаяние, тренер в бешенстве. Да еще Тэд ударился в новое учение. Миссия по спасению команды возложена на Алекса...

3.04 "The Peak"

"Триумф"
Триумфом завершилась последняя игра БМС. Алекс Морэн побил рекорд 30-летней давности. Конечно же, такое надо отпраздновать. И секси девочки ждут не дождутся сегодняшнего героя. Но вот беда, полиция перекрыла весь кампус. Что же делать?

3.05 "Training Day"

"Тренировочный день"
В ежегодном дерби БМС – Оверлэнд решающую роль сыграл Алекс Морэн. Первое интервью "золотого мальчика" и первые ошибки. Чтобы избежать недоразумений в будущем, предстоит освоить пятьдесят плюс уроков "Как быть звездой" от Тэда Касла. "И если ты не дурак, то будешь учиться".

3.06 "Blackout"

"Перебои с электричеством"
Из-за неожиданного отключения электричества на всей территории кампуса пришлось перенести игру против команды Бакингемские Титаны на следующий день. Однако сражение все равно состоится, и полем боя станет Козлятник. Бакингем против Козлов в пивопонг! Кто кого? И кто такой Кевин?

3.07 "Superstition"

"Суеверие"
Кикер – ответственная позиция в футболе. Пока ты выбиваешь сто из ста, все тебя любят и боготворят. Но стоит раз дать слабину, как об тебя вытрут ноги твои же партнеры. Готов ли ты прибегнуть к помощи потусторонних сил, чтобы вернуть удачу? Херман сделал свой выбор...

3.08 "Fun Facts"

"Любопытные Факты"
Тренер Дэниэлс вот-вот войдет в Зал Славы студенческого футбола. На вечеринке в его честь старые товарищи, друзья и коллеги придаются воспоминаниям. Тэд подготовил речь, а Морэн притащил близняшек. Однако не все пошло гладко...

3.09 "The C-Word"

"Запретное Слово"
На одной из тренировок Тэд не рассчитал свои силы и получил небольшое сотрясение. Слово начинающееся на "с" под запретом на всей территории кампуса. Ведь если об этом узнают, товарищи по команде не упустят возможности поиздеваться над капитаном, а тренер Гилдэй может воспользоваться информацией для смещения Дэниэлса. Алексу предстоит помочь Тэду, параллельно стараясь не сболтнуть ничего лишнего окружающим.

3.10 "One Week"

"Одна Неделя"
Вот и добрались документалисты до стен БМС. Нашим героям предстоит пережить несколько тяжелейших дней съемок. А ведь каждый хочет отличиться и блеснуть в кадре, чтобы именно его запомнили. Вот почему все будут стараться показать себя в лучшем свете.

3.11 "Death Penalty"

"Смертная Казнь"
Death Penalty – спортивный термин обозначающий дисквалификацию команды.
Как-то раз на пороге БМС появился представитель Национальной Ассоциации Студенческого Спорта и вывалил кипу бумаг, где по пунктам расписаны разного рода нарушения футболистов.
У команды меньше двух суток до начала официального разбирательства. На повестке дня два вопроса: что делать и кто стукач?
-

Скриншоты

       
-

MI

Код:
Format : AVI
Format/Info : Audio Video Interleave
File size : 227 MiB
Duration : 21mn 40s
Overall bit rate : 1 465 Kbps
Video
Format : MPEG-4 Visual
Format profile : Streaming Video@L1
Format settings, BVOP : Yes
Format settings, QPel : No
Format settings, GMC : No warppoints
Format settings, Matrix : Default
Muxing mode : Packed bitstream
Codec ID : XVID
Codec ID/Hint : XviD
Duration : 21mn 40s
Bit rate : 1 195 Kbps
Width : 624 pixels
Height : 352 pixels
Display aspect ratio : 16/9
Frame rate : 23.976 fps
Resolution : 24 bits
Colorimetry : 4:2:0
Scan type : Progressive
Bits/(Pixel*Frame) : 0.227
Stream size : 185 MiB (82%)
Writing library : XviD 1.2.0.dev47 (UTC 2006-11-01)
Audio #1
Format : MPEG Audio
Format version : Version 1
Format profile : Layer 3
Codec ID : 55
Codec ID/Hint : MP3
Duration : 21mn 40s
Bit rate mode : Constant
Bit rate : 128 Kbps
Channel(s) : 2 channels
Sampling rate : 48.0 KHz
Resolution : 16 bits
Stream size : 19.8 MiB (9%)
Alignment : Aligned on interleaves
Interleave, duration : 42 ms (1.00 video frame)
Interleave, preload duration : 504 ms
Writing library : LAME3.98
Audio #2
Format : MPEG Audio
Format version : Version 1
Format profile : Layer 3
Codec ID : 55
Codec ID/Hint : MP3
Duration : 21mn 40s
Bit rate mode : Constant
Bit rate : 128 Kbps
Channel(s) : 2 channels
Sampling rate : 48.0 KHz
Resolution : 16 bits
Stream size : 19.8 MiB (9%)
Alignment : Aligned on interleaves
Interleave, duration : 42 ms (1.00 video frame)
Interleave, preload duration : 504 ms
Writing library : LAME3.98
-

О выходе серий в озвучке

в зависимости от нашего свободного времени.
-

Внимание! Раздача ведётся путём добавления новых серий!

Внимание! Раздача ведётся путём добавления новых серий; при каждом добавлении создётся новый торрент. Чтобы начать докачку новой серии, пользователям необходимо сделать следующее:
1) остановить скачивание,
2) удалить старый торрент у себя из клиента (старые серии удалять не надо),
3) скачать новый торрент и запустить его у себя в клиенте вместо старого, при этом указать клиенту путь в старую папку куда и должно происходить скачивание новых серий.
Ваш клиент при этом должен произвести хеширование (проверку) старой папки (если не производит сам - помогите ему сделать это), и будет докачивать только те серии которых у вас ещё нет. Старые серии при этом не удаляются, а продолжают раздаваться!
Eсли вы уже удалили старые серии, то предотвратить повторную закачку старых серий можно, отжав галочку в соответсвующих местах при запуске нового торрента.
Как закачать отдельный файл из торрента или докачать ранее пропущенные файлы торрента


Последний раз редактировалось: Omen (2011-10-11 10:22), всего редактировалось 1 раз
Вне форума [Профиль] [ЛС]
Показать сообщения:    
Ответить на тему

Текущее время: Сегодня 17:57

Часовой пояс: GMT + 3



Вы не можете начинать темы
Вы не можете отвечать на сообщения
Вы не можете редактировать свои сообщения
Вы не можете удалять свои сообщения
Вы не можете голосовать в опросах
Вы не можете прикреплять файлы к сообщениям
Вы не можете скачивать файлы