Сегодня идет свободное скачивание без начисления Download

Сверхъестественное / Supernatural (Сезон 9, полный, Серии 23 из 23) (Роберт Сингер / Robert Singer ...) [2013г., Ужасы, Фэнтези, Триллер, Драма, Детектив, HDTVRip] MVO (DreamRecords) + Original (Eng)

Ответить на тему
 
Автор
Сообщение

Omen ®

Стаж: 6 лет 1 месяц

Сообщений: 184308

Торрент-статистика

Пост 14-Окт-2013 18:12

[Цитировать]

Сверхъестественное / Supernatural - Год выхода: 2013
Производство: США, The CW
Жанр: ужасы, фэнтези, триллер, драма, детектив
Сезон: 9
Серии: 23 из 23
Продолжительность: ~ 00:42:00 серия-Перевод: Многоголосый закадровый - DreamRecords-Режиссер: Роберт Сингер, Филип Сгриккиа, Ким Мэннерс
Продюсер: Филип Сгриккиа, Роберт Сингер, Тодд Филип Аронье-Актеры: Джаред Падалеки, Дженсен Эклс, Джим Бивер, Миша Коллинз, Марк Шеппард, Джеффри Дин Морган, Женевьев Падалеки, Синди Сэмпсон, Саманта Феррис, Митч Пиледжи и др.-Описание фильма:Сериал рассказывает о приключениях братьев Сэма и Дина Винчестеров, которые путешествуют по Соединённым Штатам на чёрном автомобиле Chevrolet Impala 1967 года, расследуют паранормальные явления, многие из которых основаны на американских городских легендах и фольклоре, и сражаются с порождениями зла, такими как демоны и призраки.- -Качество видео: HDTVRip
Формат: AVI
Видео: MPEG4, XviD, 720x400 (16:9), 23.976 fps, 1 295 Kbps (0.188 bit/pixel)
Аудио: MP3, 48.0 KHz, 2 ch, 192 Kbps, CBR
-

Список серий:

  • Думаю, я здесь приживусь (I Think I'm Gonna Like It Here)
  • Беззаботный (Devil May Care)
  • Я не ангел (I'm No Angel)
  • В гостях у сказки (Slumber Party)
  • Собачий полдень Дина (Dog Dean Afternoon)
  • Небеса не могут ждать (Heaven Can't Wait)
  • Плохие мальчишки (Bad Boys)
  • Между молотом и наковальней (Rock and a Hard Place)
  • Человек с тяжелым характером (Holy Terror)
  • Поездка (Road Trip)
  • Перворожденный (First Born)
  • Острые зубы (Sharp Teeth)
  • Очищение (The Purge)
  • В западне (Captives)
  • Худой человек (Thinman)
  • Бегущие по лезвию (Blade Runners)
  • Лекарство от всех проблем (Mother's Little Helper)
  • Вымысел Меты (Meta Fiction)
  • Алекс Энни Алексис Энн (Alex Annie Alexis Ann)
  • Кровные узы (Bloodlines)
  • Король проклятых (King of the Damned)
  • Лестница к небесам (Stairway to Heaven)
  • Верите ли вы в чудеса? (Do You Believe in Miracles)
-

MediaInfo

General
Complete name : D:\Сериалы\Сверхъестественное (9 сезон)\Supernatural.S09E01.400p.HDTVRip.XviD- [DreamRecords].avi
Format : AVI
Format/Info : Audio Video Interleave
File size : 454 MiB
Duration : 42mn 26s
Overall bit rate : 1 497 Kbps
Writing application : VirtualDubModRus 1.5.10.2 (build 2542/release)
Writing library : VirtualDubMod build 2542/release
Video
ID : 0
Format : MPEG-4 Visual
Format profile : Advanced Simple@L5
Format settings, BVOP : 1
Format settings, QPel : No
Format settings, GMC : No warppoints
Format settings, Matrix : Default (MPEG)
Codec ID : XVID
Codec ID/Hint : XviD
Duration : 42mn 26s
Bit rate : 1 295 Kbps
Width : 720 pixels
Height : 400 pixels
Display aspect ratio : 16:9
Frame rate : 23.976 fps
Color space : YUV
Chroma subsampling : 4:2:0
Bit depth : 8 bits
Scan type : Progressive
Compression mode : Lossy
Bits/(Pixel*Frame) : 0.188
Stream size : 393 MiB (87%)
Writing library : XviD 64
Audio
ID : 1
Format : MPEG Audio
Format version : Version 1
Format profile : Layer 3
Mode : Joint stereo
Codec ID : 55
Codec ID/Hint : MP3
Duration : 42mn 26s
Bit rate mode : Constant
Bit rate : 192 Kbps
Channel(s) : 2 channels
Sampling rate : 48.0 KHz
Compression mode : Lossy
Stream size : 58.3 MiB (13%)
Alignment : Aligned on interleaves
Interleave, duration : 42 ms (1.00 video frame)
Interleave, preload duration : 504 ms
-

Раздача ведётся путём добавления новых серий

Раздача ведётся путём добавления новых серий; при каждом добавлении создаётся новый торрент. Чтобы начать докачку новой серии, пользователям необходимо сделать следующее:
(1) остановить скачивание,
(2) удалить старый торрент у себя из клиента (старые серии удалять не надо),
(3) скачать новый торрент и запустить его у себя в клиенте вместо старого, при этом указать клиенту путь в старую папку куда и должно происходить скачивание новых серий.
Ваш клиент при этом должен произвести хеширование (проверку) старой папки (если не производит сам - помогите ему сделать это), и будет докачивать только те серии которых у вас ещё нет. Старые серии при этом не удаляются, а продолжают раздаваться!
Eсли вы уже удалили старые серии, то предотвратить повторную закачку старых серий можно, отжав галочку в соответствующих местах при запуске нового торрента. По возможности, желательно не удалять старые серии как можно дольше чтобы релизёр не столько продолжал раздавать старые серии, а смог сконцентрироваться на новых.
-

Скриншот c названием фильма

 
-Скриншоты:
       
-

Еще

         
-
Вне форума [Профиль] [ЛС]
Показать сообщения:    
Ответить на тему

Текущее время: Сегодня 14:25

Часовой пояс: GMT + 3



Вы не можете начинать темы
Вы не можете отвечать на сообщения
Вы не можете редактировать свои сообщения
Вы не можете удалять свои сообщения
Вы не можете голосовать в опросах
Вы не можете прикреплять файлы к сообщениям
Вы не можете скачивать файлы