Сегодня идет свободное скачивание без начисления Download

Симпсоны / The Simpsons / Сезон: 25 / Серия: 1 (Мэтт Гроунинг / Matt Groening) [2013, комедия, сатира, WEB-DL 720p] MVO (Nice-Media)

Ответить на тему
 
Автор
Сообщение

Omen ®

Стаж: 5 лет

Сообщений: 190529

Торрент-статистика

Пост 14-Окт-2013 00:49

[Цитировать]

Симпсоны / The Simpsons
Страна: США
Жанр: комедия, сатира
Продолжительность: 00:21:08
Год выпуска: 2013
Перевод: Профессиональный (многоголосый закадровый)
Русские субтитры: нет
-Режиссёр: Мэтт Гроунинг / Matt Groening
Роли озвучивали: Дэн Кастелланета, Хэнк Азариа, Джулия Кавнер, Нэнси Картрайт, Ярдли Смит, Гарри Ширер
-Описание: «Симпсоны» (англ. The Simpsons) — самый длинный мультсериал в истории американского телевидения, длящийся 25 сезонов. Первая мини-серия «Good night» была показана в «Шоу Трейси Ульман» 19 апреля 1987 года. Демонстрация полноценных серий мультсериала началась 17 декабря 1989 года на канале FOX. Выпускается «Gracie Films» для кинокомпании «20th Century Fox». Мультсериал в настоящее время известен телезрителям более чем 100 стран.
Это насыщенное сатирой (в том числе социальной) шоу высмеивает многие клише и стереотипы, в частности — стиль жизни «среднестатистического американца», особенности мировых культур в целом, знаменитостей и даже само телевидение и телеканал «Fox»; не стесняется затрагивать такие скользкие вопросы, как политика и религия: в частности, поднимались темы однополых браков, борьбы дарвинистов и креационистов, войны в Ираке.
Журнал Time в 1998 году назвал «Симпсонов» лучшим телевизионным сериалом XX века. 27 июля 2007 года в США прошла премьера полнометражного мультфильма с героями сериала, «The Simpsons Movie»; в России фильм получил название «Симпсоны в кино», его выход на экраны состоялся 16 августа 2007 года.
-Список серий:
1. «Homerland»
-Доп. информация:
Озвучка: Nice-Media
Перевод: Stevvie
Подготовка видео: L0cDoG
Работа со звуком: L0cDoG

Семпл: http://multi-up.com/912960-Качество: WEB-DL 720p
Формат: MKV
Видео: MPEG4 Video (H264) 1280x718 (41:23) 23.976fps
Аудио: Dolby AC3 48000Hz 6ch 384kbps [Russian]
Аудио 2: Dolby AC3 48000Hz 6ch 384kbps [English]
Субтитры: отсутствуют

Подробные технические данные

GeneralUnique ID : 233322679383826668662665244622729694048 (0xAF88504113BB6CF18BF1B3A5CAA2CB60)Complete name : C:\Users\Сергей\Downloads\The.Simpsons.S25E01.Homerland.720p.WEB-DL.Nice-Media.rus.eng.mkvFormat : MatroskaFormat version : Version 4 / Version 2File size : 674 MiBDuration : 21mn 9sOverall bit rate : 4 457 KbpsEncoded date : UTC 2013-10-12 14:21:09Writing application : mkvmerge v6.3.0 ('You can't stop me!') built on Jun 28 2013 20:09:41Writing library : libebml v1.3.0 + libmatroska v1.4.0
VideoID : 1Format : AVCFormat/Info : Advanced Video CodecFormat profile : High@L3.1Format settings, CABAC : NoFormat settings, ReFrames : 2 framesFormat settings, GOP : N=1Codec ID : V_MPEG4/ISO/AVCDuration : 21mn 9sBit rate : 3 600 KbpsWidth : 1 280 pixelsHeight : 718 pixelsDisplay aspect ratio : 16:9Frame rate mode : ConstantFrame rate : 23.976 fpsColor space : YUVChroma subsampling : 4:2:0Bit depth : 8 bitsScan type : ProgressiveBits/(Pixel*Frame) : 0.163Stream size : 545 MiB (81%)Language : EnglishDefault : YesForced : NoColor primaries : BT.709Transfer characteristics : BT.709Matrix coefficients : BT.709
Audio #1ID : 2Format : AC-3Format/Info : Audio Coding 3Mode extension : CM (complete main)Format settings, Endianness : BigCodec ID : A_AC3Duration : 21mn 9sBit rate mode : ConstantBit rate : 384 KbpsChannel count : 6 channelsChannel positions : Front: L C R, Side: L R, LFESampling rate : 48.0 KHzBit depth : 16 bitsCompression mode : LossyStream size : 58.1 MiB (9%)Title : RUS (Nice-Media)Language : RussianDefault : YesForced : No
Audio #2ID : 3Format : AC-3Format/Info : Audio Coding 3Mode extension : CM (complete main)Format settings, Endianness : BigCodec ID : A_AC3Duration : 21mn 9sBit rate mode : ConstantBit rate : 384 KbpsChannel count : 6 channelsChannel positions : Front: L C R, Side: L R, LFESampling rate : 48.0 KHzBit depth : 16 bitsCompression mode : LossyDelay relative to video : 9msStream size : 58.1 MiB (9%)Title : EngLanguage : EnglishDefault : NoForced : No

Скриншоты

Вне форума [Профиль] [ЛС]
Показать сообщения:    
Ответить на тему

Текущее время: Сегодня 23:11

Часовой пояс: GMT + 3



Вы не можете начинать темы
Вы не можете отвечать на сообщения
Вы не можете редактировать свои сообщения
Вы не можете удалять свои сообщения
Вы не можете голосовать в опросах
Вы не можете прикреплять файлы к сообщениям
Вы не можете скачивать файлы