Сегодня идет свободное скачивание без начисления Download

Симпсоны / The Simpsons / Сезон: 13 / Серия: 16 (Мэтт Гроунинг / Matt Groening) [2002, комедия, сатира, BDRip 1080p] MVO (Nice-Media)

Ответить на тему
 
Автор
Сообщение

Omen ®

Стаж: 4 года 10 месяцев

Сообщений: 190643

Торрент-статистика

Пост 14-Окт-2013 00:49

[Цитировать]

Симпсоны / The Simpsons
Страна: США
Жанр: комедия, сатира
Продолжительность: 00:22:32
Год выпуска: 2002
Перевод: Профессиональный (многоголосый закадровый)
Русские субтитры: нет-Режиссёр: Мэтт Гроунинг / Matt Groening
Роли озвучивали: Дэн Кастелланета, Хэнк Азариа, Джулия Кавнер, Нэнси Картрайт, Ярдли Смит, Гарри Ширер-Описание: «Симпсоны» (англ. The Simpsons) — самый длинный мультсериал в истории американского телевидения, длящийся 25 сезонов. Первая мини-серия «Good night» была показана в «Шоу Трейси Ульман» 19 апреля 1987 года. Демонстрация полноценных серий мультсериала началась 17 декабря 1989 года на канале FOX. Выпускается «Gracie Films» для кинокомпании «20th Century Fox». Мультсериал в настоящее время известен телезрителям более чем 100 стран.
Это насыщенное сатирой (в том числе социальной) шоу высмеивает многие клише и стереотипы, в частности — стиль жизни «среднестатистического американца», особенности мировых культур в целом, знаменитостей и даже само телевидение и телеканал «Fox»; не стесняется затрагивать такие скользкие вопросы, как политика и религия: в частности, поднимались темы однополых браков, борьбы дарвинистов и креационистов, войны в Ираке.
Журнал Time в 1998 году назвал «Симпсонов» лучшим телевизионным сериалом XX века. 27 июля 2007 года в США прошла премьера полнометражного мультфильма с героями сериала, «The Simpsons Movie»; в России фильм получил название «Симпсоны в кино», его выход на экраны состоялся 16 августа 2007 года.
-Список серий:
16. «Weekend at Burnsie’s»-Доп. информация:
Озвучка: Mirohaha, L0cDoG, Marvel, Milla, Nika Kartman, Пётр Glanz
Подготовка видео: L0cDoG
Работа со звуком: L0cDoG

Семпл: http://multi-up.com/912148-Качество: BDRip 1080p
Формат: MKV
Видео: MPEG4 Video (H264) 1440x1080 23.976fps
Аудио: Dolby AC3 48000Hz 6ch 448kbps [Russian]
Аудио 2: Dolby AC3 48000Hz 6ch 448kbps [English]
Аудио 3: DTS 48000Hz 6ch 1536kbps [English]
Субтитры: отсутствуют

Подробные технические данные

GeneralUnique ID : 218745916556303721627762076206878846774 (0xA490EE5BF7D4CA607B0B14012C566F36)Complete name : C:\Users\Сергей\Videos\the.simpsons.s13e16.1080p.nicemedia.mkvFormat : MatroskaFormat version : Version 2File size : 1.23 GiBDuration : 22mn 32sOverall bit rate : 7 825 KbpsWriting application : Lavf54.63.104Writing library : Lavf54.63.104
VideoID : 1Format : AVCFormat/Info : Advanced Video CodecFormat profile : High@L4.1Format settings, CABAC : YesFormat settings, ReFrames : 4 framesCodec ID : V_MPEG4/ISO/AVCDuration : 22mn 32sBit rate : 5 434 KbpsWidth : 1 440 pixelsHeight : 1 080 pixelsDisplay aspect ratio : 4:3Frame rate mode : ConstantFrame rate : 23.976 fpsColor space : YUVChroma subsampling : 4:2:0Bit depth : 8 bitsScan type : ProgressiveBits/(Pixel*Frame) : 0.146Stream size : 849 MiB (67%)Writing library : x264 core 114 r1900 60ef1f8Encoding settings : cabac=1 / ref=4 / deblock=1:0:0 / analyse=0x3:0x133 / me=umh / subme=8 / psy=1 / psy_rd=1.00:0.00 / mixed_ref=1 / me_range=16 / chroma_me=1 / trellis=1 / 8x8dct=1 / cqm=0 / deadzone=21,11 / fast_pskip=0 / chroma_qp_offset=-2 / threads=6 / sliced_threads=0 / nr=0 / decimate=1 / interlaced=0 / constrained_intra=0 / bframes=3 / b_pyramid=2 / b_adapt=1 / b_bias=0 / direct=1 / weightb=1 / open_gop=0 / weightp=2 / keyint=250 / keyint_min=23 / scenecut=40 / intra_refresh=0 / rc_lookahead=40 / rc=2pass / mbtree=1 / bitrate=5434 / ratetol=1.0 / qcomp=0.60 / qpmin=0 / qpmax=69 / qpstep=4 / cplxblur=20.0 / qblur=0.5 / ip_ratio=1.40 / aq=1:1.00Default : YesForced : No
Audio #1ID : 2Format : AC-3Format/Info : Audio Coding 3Mode extension : CM (complete main)Format settings, Endianness : BigCodec ID : A_AC3Duration : 22mn 32sBit rate mode : ConstantBit rate : 448 KbpsChannel count : 6 channelsChannel positions : Front: L C R, Side: L R, LFESampling rate : 48.0 KHzBit depth : 16 bitsCompression mode : LossyStream size : 72.2 MiB (6%)Language : RussianDefault : YesForced : No
Audio #2ID : 3Format : AC-3Format/Info : Audio Coding 3Mode extension : CM (complete main)Format settings, Endianness : BigCodec ID : A_AC3Duration : 22mn 32sBit rate mode : ConstantBit rate : 448 KbpsChannel count : 6 channelsChannel positions : Front: L C R, Side: L R, LFESampling rate : 48.0 KHzBit depth : 16 bitsCompression mode : LossyStream size : 72.2 MiB (6%)Default : YesForced : No
Audio #3ID : 4Format : DTSFormat/Info : Digital Theater SystemsMode : 16Format settings, Endianness : BigCodec ID : A_DTSDuration : 22mn 32sBit rate mode : ConstantBit rate : 1 509 KbpsChannel count : 6 channelsChannel positions : Front: L C R, Side: L R, LFESampling rate : 48.0 KHzBit depth : 24 bitsCompression mode : LossyStream size : 243 MiB (19%)Default : YesForced : No

Скриншоты

Вне форума [Профиль] [ЛС]
Показать сообщения:    
Ответить на тему

Текущее время: Сегодня 14:01

Часовой пояс: GMT + 3



Вы не можете начинать темы
Вы не можете отвечать на сообщения
Вы не можете редактировать свои сообщения
Вы не можете удалять свои сообщения
Вы не можете голосовать в опросах
Вы не можете прикреплять файлы к сообщениям
Вы не можете скачивать файлы