Today is a free download without charge Download

Mangirl! / Мангачки! [2013, TV, 13 + 1] BDrip 1080p Hi10p raw

Reply to topic
 
Author
Message

UndegraundMen ®

Longevity: 6 years 9 months

Posts: 25145

Торрент-статистика

Post 13-Oct-2013 23:00

[Quote]

まんがーる!
Mangirl!
Мангачки!-
Жанр: комедия
Тип: ТВ-сериал
Продолжительность: 13 серий по 5 мин.
Количество серий: 13 из 13 + 1 sp
Период выхода: c 03.01.2013 по 28.03.2013
Производство/студия:
Автор оригинала: Тамаока Кагари / Tamaoka Kagari / 玉岡かがり
Режиссер: Наканиси Нобуаки / Nakanishi Nobuaki / 中西伸彰
Ссылки: World-Art, ANN, Ani-DB, MAL-Описание:
Это история нелегкой жизни редакторов и мангак, борющихся за место под солнцем, точнее, за публикацию в одном из манга-журналов.
Источник: © АниМаг ОНЛАЙН-Качество видео: BDrip
Видео: h264, High [url=mailto:10@L4.1]10@L4.1[/url], 1920x1080, 23,976 кадра/сек, ~4 Mбит/сек
Аудио1: ALS, 2 канала, 48,0 КГц, 722 кбит/сек
Аудио2: ALS, 2 канала, 48,0 КГц, 695 кбит/сек (комментарии сейю)
Звук: Японский
Cубтитры (подключаемые): Русские от [Timecraft]

Эпизоды:

01. Знакомьтесь, редакторы «Земляной звёздочки»
02. Будни редактора
03. Поработаем с моделями
04. Помощницы
05. Ночь в «Фотошопе»
06. Бесконечная вычитка
07. Нелёгкий путь Рёмы
08. Планета «Комиске»
09. Одолженное
10. Покупайте больше
11. Это ещё цветочки!
12. Первый том
13. Нас ждёт аниме
14. Редактор развлекается

MediaInfo на первую серию

Код:
Общее
Полное имя                               : K:\Mangirl (BDrip 1920x1080 x264 ALS)\Mangirl! - 01 (BD 1920x1080 x264 ALSx2).mp4
Формат                                   : MPEG-4
Профиль формата                          : Base Media / Version 2
Идентификатор кодека                     : mp42
Размер файла                             : 130 Мбайт
Продолжительность                        : 3 м. 30 с.
Режим общего битрейта                    : Переменный
Общий поток                              : 5213 Кбит/сек
Дата кодирования                         : UTC 2013-05-24 18:19:46
Дата пометки                             : UTC 2013-05-24 18:19:46
Видео
Идентификатор                            : 1
Формат                                   : AVC
Формат/Информация                        : Advanced Video Codec
Профиль формата                          : High [url=mailto:10@L4.1]10@L4.1[/url]
Параметр CABAC формата                   : Да
Параметр ReFrames формата                : 4 кадра
Идентификатор кодека                     : avc1
Идентификатор кодека/Информация          : Advanced Video Coding
Продолжительность                        : 3 м. 30 с.
Вид битрейта                             : Переменный
Битрейт                                  : 3792 Кбит/сек
Максимальный битрейт                     : 40,0 Мбит/сек
Ширина                                   : 1920 пикселей
Высота                                   : 1080 пикселей
Соотношение сторон                       : 16:9
Режим частоты кадров                     : Постоянный
Частота кадров                           : 23,976 кадра/сек
Цветовое пространство                    : YUV
Субдискретизация насыщенности            : 4:2:0
Битовая глубина                          : 10 бит
Тип развёртки                            : Прогрессивная
Бит/(Пиксели*Кадры)                      : 0.076
Размер потока                            : 94,9 Мбайт (73%)
Заголовок                                : main
Библиотека кодирования                   : x264 core 133 r2334 l-smash
Настройки программы                      : cabac=1 / ref=4 / deblock=1:0:0 / analyse=0x3:0x133 / me=umh / subme=11 / psy=1 / psy_rd=1.20:0.00 / mixed_ref=1 / me_range=32 / chroma_me=1 / trellis=2 / 8x8dct=1 / cqm=0 / deadzone=21,11 / fast_pskip=0 / chroma_qp_offset=-2 / threads=6 / lookahead_threads=1 / sliced_threads=0 / nr=0 / decimate=0 / interlaced=0 / bluray_compat=0 / constrained_intra=0 / bframes=3 / b_pyramid=2 / b_adapt=2 / b_bias=0 / direct=3 / weightb=1 / open_gop=0 / weightp=2 / keyint=240 / keyint_min=4 / scenecut=50 / intra_refresh=0 / rc_lookahead=60 / rc=crf / mbtree=1 / crf=17.5 / qcomp=0.70 / qpmin=0 / qpmax=81 / qpstep=12 / vbv_maxrate=40000 / vbv_bufsize=30000 / crf_max=0.0 / nal_hrd=vbr / ip_ratio=1.40 / aq=1:1.00
Язык                                     : Japanese
Дата кодирования                         : UTC 2013-05-24 18:19:46
Дата пометки                             : UTC 2013-05-24 18:19:46
Основные цвета                           : BT.709
Характеристики трансфера                 : BT.709
Коэффициенты матрицы                     : BT.709
Аудио #1
Идентификатор                            : 2
Формат                                   : ALS
Формат/Информация                        : MPEG-4 Audio Lossless Coding
Идентификатор кодека                     : 40
Продолжительность                        : 3 м. 30 с.
Duration_LastFrame                       : -4 мс.
Вид битрейта                             : Переменный
Битрейт                                  : 722 Кбит/сек
Каналы                                   : 2 канала
Частота                                  : 48,0 КГц
Метод сжатия                             : Без потерь
Задержка видео                           : 83 мс.
Размер потока                            : 18,1 Мбайт (14%)
Заголовок                                : main
Язык                                     : Japanese
Дата кодирования                         : UTC 2013-05-24 18:19:46
Дата пометки                             : UTC 2013-05-24 18:19:46
Аудио #2
Идентификатор                            : 3
Формат                                   : ALS
Формат/Информация                        : MPEG-4 Audio Lossless Coding
Идентификатор кодека                     : 40
Продолжительность                        : 3 м. 30 с.
Duration_LastFrame                       : -4 мс.
Вид битрейта                             : Переменный
Битрейт                                  : 695 Кбит/сек
Каналы                                   : 2 канала
Частота                                  : 48,0 КГц
Метод сжатия                             : Без потерь
Задержка видео                           : 83 мс.
Размер потока                            : 17,4 Мбайт (13%)
Заголовок                                : commentary
Язык                                     : Japanese
Дата кодирования                         : UTC 2013-05-24 18:19:46
Дата пометки                             : UTC 2013-05-24 18:19:46
Меню
00:00:00.000                             : アバン
00:00:19.143                             : オープニング
00:00:49.173                             : 本編
Скриншоты:
       

Ещё скриншоты

       
       
Время раздачи: круглосуточно
Other forum [Profile] [PM]
Display posts from previous:    
Reply to topic

The time now is: Today 04:39

All times are GMT + 3 Hours



You cannot post new topics in this forum
You cannot reply to topics in this forum
You cannot edit your posts in this forum
You cannot delete your posts in this forum
You cannot vote in polls in this forum
You cannot attach files in this forum
You cannot download files in this forum