Сегодня идет свободное скачивание без начисления Download

Элементарно / Elementary (2013) 1080p WEB-DL [Сезон 2, Серия 1-3(?)] [NewStudio] (обновляемая)

Ответить на тему
 
Автор
Сообщение

UndegraundMen ®

Стаж: 5 лет 4 месяца

Сообщений: 25866

Торрент-статистика

Пост 13-Окт-2013 05:00

[Цитировать]

Элементарно / Elementary (2013) 1080p WEB-DL [Сезон 2, Серия 1-3(?)] [NewStudio] (обновляемая)- Год выпуска: 2013
Жанр: Драма, Криминал, Детектив
Перевод: Многоголосый закадровый, профессиональный
Язык: EN-RU
Озвучка / Автор перевода: NewStudio/Григорий Сенин
Релиз группа:

Дата мировой премьеры: 2013
Режиссер: Майкл Куэста
Актеры: Джонни Ли Миллер, Люси Лью, Эйдан Куинн, Билл Хек, Уорд Хортон, Мэнни Перез
Описание фильма:
Новое воплощение героя Конан-Дойла, на сей раз в современном Нью- Йорке. Холмс — бывший консультант Скотланд-Ярда, который, вместе с Джоан Ватсон, помогает раскрывать преступления Нью-Йоркской полиции.
Продолжительность: ~00:45:00
Качество видео: WEB-DL
Сэмпл: Скачать
Битрейт видео: ~4 903 kb/s
Размер кадра: 1920x1080
Аудиокодек: AC3 5.1
Битрейт аудио: Русский / Английский: AC3, 384 kb/sРаздача ведётся путём добавления новых серий

Внимание! Раздача ведётся путём добавления новых серий:

При каждом обновлении создаётся новый торрент.
Чтобы начать докачку новой серии, пользователям необходимо сделать следующее:
1. Остановить скачивание;
2. Удалить старый торрент у себя из клиента (старые серии удалять не надо);
3. Скачать новый торрент и запустить его у себя в клиенте вместо старого, при этом указать клиенту путь в старую папку куда и должно происходить скачивание новых серий. Ваш клиент при этом должен произвести хеширование (проверку) старой папки (если не производит сам - помогите ему сделать это), и будет докачивать только те серии которых у вас ещё нет. Старые серии при этом не удаляются, а продолжают раздаваться! Eсли вы уже удалили старые серии, то предотвратить повторную закачку старых серий можно, отжав галочку в соответствующих местах при запуске нового торрента.

MediaInfo

Общее
Уникальный идентификатор : 225934791860443506256841620708275017074 (0xA9F97546D8E278809685B47D5F985572)
Полное имя : D:\Тоорент\Elementary.S02.WEBDL.1080p.NewStudio\Elementary.S02E01.WEBDL.1080p.NewStudio.TV.mkv
Формат : Matroska
Версия формата : Version 4 / Version 2
Размер файла : 1,72 Гбайт
Продолжительность : 43 м.
Общий поток : 5683 Кбит/сек
Дата кодирования : UTC 2013-09-28 17:42:19
Программа кодирования : mkvmerge v6.4.1 ('Omega Point') built on Sep 16 2013 22:05:10
Библиотека кодирования : libebml v1.3.0 + libmatroska v1.4.1
Видео
Идентификатор : 1
Формат : AVC
Формат/Информация : Advanced Video Codec
Профиль формата : [url=mailto:High@L4.0]High@L4.0[/url]
Параметр CABAC формата : Да
Параметр ReFrames формата : 4 кадра
Идентификатор кодека : V_MPEG4/ISO/AVC
Продолжительность : 43 м.
Битрейт : 4802 Кбит/сек
Ширина : 1920 пикселей
Высота : 1080 пикселей
Соотношение сторон : 16:9
Режим частоты кадров : Постоянный
Частота кадров : 23,976 кадра/сек
Цветовое пространство : YUV
Субдискретизация насыщенности : 4:2:0
Битовая глубина : 8 бит
Тип развёртки : Прогрессивная
Бит/(Пиксели*Кадры) : 0.097
Размер потока : 1,45 Гбайт (84%)
Язык : English
Default : Да
Forced : Нет
Основные цвета : BT.709
Характеристики трансфера : BT.709
Коэффициенты матрицы : BT.709
Аудио #1
Идентификатор : 2
Формат : AC-3
Формат/Информация : Audio Coding 3
Расширение режима : CM (complete main)
Параметр Endianness формата : Big
Идентификатор кодека : A_AC3
Продолжительность : 43 м.
Вид битрейта : Постоянный
Битрейт : 384 Кбит/сек
Каналы : 6 каналов
Расположение каналов : Front: L C R, Side: L R, LFE
Частота : 48,0 КГц
Битовая глубина : 16 бит
Метод сжатия : С потерями
Размер потока : 119 Мбайт (7%)
Язык : Russian
Default : Да
Forced : Нет
Аудио #2
Идентификатор : 3
Формат : AC-3
Формат/Информация : Audio Coding 3
Расширение режима : CM (complete main)
Параметр Endianness формата : Big
Идентификатор кодека : A_AC3
Продолжительность : 43 м.
Вид битрейта : Постоянный
Битрейт : 384 Кбит/сек
Каналы : 6 каналов
Расположение каналов : Front: L C R, Side: L R, LFE
Частота : 48,0 КГц
Битовая глубина : 16 бит
Метод сжатия : С потерями
Размер потока : 119 Мбайт (7%)
Язык : English
Default : Нет
Forced : Нет

Ориентировочный график появления новых серий на сайте:

Суббота-Понедельник
Внимание! График ориентировочный, выход новой серии может быть перенесён из-за непредвиденных обстоятельств.
Скриншоты:
         
Вне форума [Профиль] [ЛС]
Похожие темы
Форум Тема Автор Торрент Отв. Посл. сообщение
./templates/default/images/folder_dl.gif Обучающее видео Lynda.com | The Elements of Effective Photographs / Элементы эффектной Фотографии (2011) PCRec [H.264] Omen
1 | 0

0 | 647

25

2015-05-16 21:33
Omen Последнее
Показать сообщения:    
Ответить на тему

Текущее время: Сегодня 10:43

Часовой пояс: GMT + 3



Вы не можете начинать темы
Вы не можете отвечать на сообщения
Вы не можете редактировать свои сообщения
Вы не можете удалять свои сообщения
Вы не можете голосовать в опросах
Вы не можете прикреплять файлы к сообщениям
Вы не можете скачивать файлы