Сегодня идет свободное скачивание без начисления Download

Симпсоны / The Simpsons / Сезон: 25 / Серии: 1 (??) (Мэтт Гроунинг / Matt Groening) [2013, Приключения, комедия, фантастика, WEB-DL 720p] MVO (VO-Production) + DVO (NewStudio) + VO (Ketchup.TV) + Original + Sub (Eng)

Ответить на тему
 
Автор
Сообщение

Omen ®

Стаж: 4 года 10 месяцев

Сообщений: 190643

Торрент-статистика

Пост 13-Окт-2013 03:37

[Цитировать]

Симпсоны / The Simpsons -Оригинальное название: The Simpsons
Русское название: Симпсоны
Год выпуска: 2013
Страна: США
Жанр: Приключения, комедия, фантастика
Продолжительность: 20 минут (серия)
Перевод:
  • Профессиональный (многоголосый закадровый) VO-Production,
  • Профессиональный (двухголосый закадровый) NewStudio,
  • Любительский (одноголосый закадровый) Ketchup.TV
Субтитры: есть (английские)-Производство: FOX
Режиссёр: Мэтт Гроунинг / Matt Groening
-Роли озвучивали: Дэн Кастелланета, Джули Кавнер, Нэнси Картрайт, Ярдли Смит, Гарри Ширер, Хэнк Азария, Памела Хейден, Тресс МакНилл, Карл Видерготт, Мэгги Росвэлл и др.-Описание: Симпсоны живут в вымышленном городе Спрингфилд, со своим обществом и историей. Гомер - отец семейства, который дает плохие советы и работает инспектором безопасности на атомной электростанции; Мардж - любящая мать и жена, старается сохранить спокойствие в семье; Барт - 10 летний хулиган; Лиза - философский 8-летний ребенок; и Мэгги - младенец, который общается посредством соски.-РЕЛИЗ ОТ: V.SERIJ2013-Спасибо Monstro41523, dreemspot и Cyanide Assassin за сборки озвучек VO-Production, NewStudio и Ketchup.TV.-Доп. информация: Реклама телеканала FOX вырезана.-Качество: WEB-DL 720p
Формат: MKV
Видео кодек: h264
Аудио кодек: AC3
Видео: MPEG4 Video (H264) 1280x718 23.976fps ~4900 Kbps
Аудио:
  • русская [VO-Production]: Dolby AC3 48000Hz stereo 192Kbps,
    русская [NewStudio]: Dolby AC3 48000Hz 6ch 384Kbps,
    русская [Ketchup.TV]: Dolby AC3 48000Hz stereo 192Kbps,
  • английская: Dolby AC3 48000Hz 6ch 384Kbps
Скриншоты:
-

Список серий

25 сезон (2013 год):
01. Homerland

Media Info

Код:
General
UniqueID                         : 176607737402656837439922733407438531618 (0x84DD69B98B3DF08999F852D33A5E6C22)
Complete name                    : E:\Videos\Sample Videos\The Simpsons Season 25 (WEB-DL 720p)\The.Simpsons.S25E01.Homerland.720p.WEB-DL.DD5.1.v.serij2013.mkv
Format                           : Matroska
File size                        : 733 MiB
Duration                         : 21mn 14s
Overall bit rate                 : 4 823 Kbps
Encoded date                     : UTC 2013-10-10 08:40:38
Writing application              : mkvmerge v5.8.0 ('No Sleep / Pillow') built on Sep  2 2012 15:37:04
Writing library                  : libebml v1.2.3 + libmatroska v1.3.0
Video
ID                               : 1
Format                           : AVC
Format/Info                      : Advanced Video Codec
Format profile                   : High@L3.1
Format settings, CABAC           : No
Format settings, ReFrames        : 2 frames
Muxing mode                      : Header stripping
Codec ID                         : V_MPEG4/ISO/AVC
Duration                         : 21mn 14s
Bit rate mode                    : Variable
Bit rate                         : 3 575 Kbps
Width                            : 1 280 pixels
Height                           : 718 pixels
Display aspect ratio             : 16:9
Frame rate                       : 23.976 fps
Color space                      : YUV
Chroma subsampling               : 4:2:0
Bit depth                        : 8 bits
Scan type                        : Progressive
Bits/(Pixel*Frame)               : 0.162
Stream size                      : 543 MiB (74%)
Language                         : English
Color primaries                  : BT.709-5, BT.1361, IEC 61966-2-4, SMPTE RP177
Transfer characteristics         : BT.709-5, BT.1361
Matrix coefficients              : BT.709-5, BT.1361, IEC 61966-2-4 709, SMPTE RP177
Audio #1
ID                               : 2
Format                           : AC-3
Format/Info                      : Audio Coding 3
Mode extension                   : CM (complete main)
Muxing mode                      : Header stripping
Codec ID                         : A_AC3
Duration                         : 21mn 14s
Bit rate mode                    : Constant
Bit rate                         : 192 Kbps
Channel(s)                       : 2 channels
Channel positions                : Front: L R
Sampling rate                    : 48.0 KHz
Bit depth                        : 16 bits
Compression mode                 : Lossy
Video delay                      : 250ms
Stream size                      : 29.2 MiB (4%)
Title                            : VO-Production
Language                         : Russian
Audio #2
ID                               : 3
Format                           : AC-3
Format/Info                      : Audio Coding 3
Mode extension                   : CM (complete main)
Muxing mode                      : Header stripping
Codec ID                         : A_AC3
Duration                         : 21mn 14s
Bit rate mode                    : Constant
Bit rate                         : 384 Kbps
Channel(s)                       : 6 channels
Channel positions                : Front: L C R, Side: L R, LFE
Sampling rate                    : 48.0 KHz
Bit depth                        : 16 bits
Compression mode                 : Lossy
Video delay                      : 16ms
Stream size                      : 58.3 MiB (8%)
Title                            : NewStudio
Language                         : Russian
Audio #3
ID                               : 4
Format                           : AC-3
Format/Info                      : Audio Coding 3
Mode extension                   : CM (complete main)
Muxing mode                      : Header stripping
Codec ID                         : A_AC3
Duration                         : 21mn 14s
Bit rate mode                    : Constant
Bit rate                         : 192 Kbps
Channel(s)                       : 2 channels
Channel positions                : Front: L R
Sampling rate                    : 48.0 KHz
Bit depth                        : 16 bits
Compression mode                 : Lossy
Video delay                      : 500ms
Stream size                      : 29.2 MiB (4%)
Title                            : Ketchup.TV
Language                         : Russian
Audio #4
ID                               : 5
Format                           : AC-3
Format/Info                      : Audio Coding 3
Mode extension                   : CM (complete main)
Muxing mode                      : Header stripping
Codec ID                         : A_AC3
Duration                         : 21mn 14s
Bit rate mode                    : Constant
Bit rate                         : 384 Kbps
Channel(s)                       : 6 channels
Channel positions                : Front: L C R, Side: L R, LFE
Sampling rate                    : 48.0 KHz
Bit depth                        : 16 bits
Compression mode                 : Lossy
Video delay                      : 16ms
Stream size                      : 58.3 MiB (8%)
Title                            : Original
Language                         : English
Text
ID                               : 6
Format                           : UTF-8
Codec ID                         : S_TEXT/UTF8
Codec ID/Info                    : UTF-8 Plain Text
Language                         : English
-
Вне форума [Профиль] [ЛС]
Показать сообщения:    
Ответить на тему

Текущее время: Сегодня 12:41

Часовой пояс: GMT + 3



Вы не можете начинать темы
Вы не можете отвечать на сообщения
Вы не можете редактировать свои сообщения
Вы не можете удалять свои сообщения
Вы не можете голосовать в опросах
Вы не можете прикреплять файлы к сообщениям
Вы не можете скачивать файлы