Сегодня идет свободное скачивание без начисления Download

Подпольная Империя / Boardwalk Empire / Сезон: 4 / Серия 5 (12) (Тимоти Ван Паттен, Аллен Култер) [2013 г., драма, криминальный, HDTVRip] [AVO] (Ю. Сербин)

Ответить на тему
 
Автор
Сообщение

maxkiller ®

Пол:

Стаж: 5 лет 3 месяца

Сообщений: 282

Торрент-статистика

Пост 11-Окт-2013 13:17

[Цитировать]

-Подпольная Империя | Boardwalk Empire
Год выпуска: 2013
Страна: США | HBO
Жанр: драма, криминальный
Продолжительность: ~ 00:58:47
Перевод: Авторский (одноголосый, закадровый) |Ю. Сербин|
Субтитры: Отсутствуют
Режиссер: Тимоти Ван Паттен, Аллен Култер-В ролях: Стив Бушеми, Майкл Питт, Келли Макдоналд, Майкл Шеннон, Ши Уигхэм, Алекса Палладино, Майкл Стулбарг, Стивен Грэм, Винсент Пьяцца, Джек Хьюстон и др.-Описание: 1920 год. Через несколько часов Атлантик-Сити — столица развлечений и порока, как и вся Америка, вступит в эпоху «Сухого закона». Енох «Наки» Томпсон, днем — городской казначей, а ночью — хитроумный гангстер со связями на самом «верху», решает воспользоваться ситуацией и получить баснословные прибыли на подпольной торговле алкоголем. Однако не он один жаждет обогатиться на новом промысле…
IMDb | КиноПоиск-Качество: HDTVRip
Формат: AVI
Видео кодек: XvID
Аудио кодек: MP3
Видео: 720x400 (1.80:1), 23.976 fps, XviD build 50 ~2038 kbps avg, 0.29 bit/pixel
Аудио #1: MP3, 48.0 KHz, 2 ch, 128 Kbps |Ю. Сербин|
Аудио #2: MP3, 48.0 KHz, 2 ch, 128 Kbps |оригинал|

MI

General
Complete name : E:INTERNETPodpolnaja.imperija.(4.sezon).2013.XviD.HDTVRip.MediaClubPodpolnaja.imperija.(4.sezon.05.serija.iz.12).2013.XviD.HDTVRip(Serbin)+Eng..avi
Format : AVI
Format/Info : Audio Video Interleave
File size : 971 MiB
Duration : 58mn 47s
Overall bit rate : 2 310 Kbps
Writing application : VirtualDubMod 1.5.10.3 (build 2550/release)
Writing library : VirtualDubMod build 2550/release
Video
ID : 0
Format : MPEG-4 Visual
Format profile : Advanced Simple@L5
Format settings, BVOP : Yes
Format settings, QPel : No
Format settings, GMC : No warppoints
Format settings, Matrix : Default (MPEG)
Codec ID : DX50
Codec ID/Hint : DivX 5
Duration : 58mn 47s
Bit rate : 2 040 Kbps
Width : 720 pixels
Height : 400 pixels
Display aspect ratio : 16:9
Frame rate : 23.976 fps
Color space : YUV
Chroma subsampling : 4:2:0
Bit depth : 8 bits
Scan type : Progressive
Bits/(Pixel*Frame) : 0.295
Stream size : 858 MiB (88%)
Writing library : XviD 1.2.1 (UTC 2008-12-04)
Audio #1
ID : 1
Format : MPEG Audio
Format version : Version 1
Format profile : Layer 3
Codec ID : 55
Codec ID/Hint : MP3
Duration : 58mn 47s
Bit rate mode : Constant
Bit rate : 128 Kbps
Channel(s) : 2 channels
Sampling rate : 48.0 KHz
Stream size : 53.8 MiB (6%)
Alignment : Aligned on interleaves
Interleave, duration : 42 ms (1.00 video frame)
Interleave, preload duration : 504 ms
Writing library : LAME3.99r
Encoding settings : -m s -V 4 -q 2 -lowpass 17 -b 128
Audio #2
ID : 2
Format : MPEG Audio
Format version : Version 1
Format profile : Layer 3
Mode : Joint stereo
Codec ID : 55
Codec ID/Hint : MP3
Duration : 58mn 46s
Bit rate mode : Constant
Bit rate : 128 Kbps
Channel(s) : 2 channels
Sampling rate : 48.0 KHz
Stream size : 53.8 MiB (6%)
Alignment : Aligned on interleaves
Interleave, duration : 42 ms (1.00 video frame)
Interleave, preload duration : 504 ms
Writing library : LAME3.97

Скриншоты




О релизе:

Перевод Ю.Сербина осуществлен в рамках сервиса "Озвучивание" (HDClub)
Спонсоры: rubak, denismgn1987, ochkarik1, Loki1982, Max_U, ray_hollis, SckraT, FM1981, RAUL, oak, Confidence, deadbeef
Работа со звуком: Nez
Вне форума [Профиль] [ЛС]
Похожие темы
Форум Тема Автор Торрент Отв. Посл. сообщение
./templates/default/images/folder_dl.gif Развлекательные телепередачи и шоу, приколы и юмор Нашествие преступности: новое криминальное подполье Британии / Crime Invasion: Britain's New Underworld [01-09] (2007) PDTVRip Omen
0 | 1

0 | 245

0

2013-01-29 05:02
Omen Последнее
./templates/default/images/folder_dl.gif Компьютерная литература Джейми Бартлетт | Подпольный интернет. Темная сторона мировой паутины (2017) [FB2] }{@R0N
1 | 0

0 | 723

12

2017-01-06 23:48
}{@R0N Последнее
Показать сообщения:    
Ответить на тему

Текущее время: Сегодня 17:36

Часовой пояс: GMT + 3



Вы не можете начинать темы
Вы не можете отвечать на сообщения
Вы не можете редактировать свои сообщения
Вы не можете удалять свои сообщения
Вы не можете голосовать в опросах
Вы не можете прикреплять файлы к сообщениям
Вы не можете скачивать файлы