Сегодня идет свободное скачивание без начисления Download

Кузей Гюней / Kuzey Guney (2012-2013) HDTVRip [2 сезон 1-13 серии из 40] (обновляемая)

Ответить на тему
 
Автор
Сообщение

UndegraundMen ®

Стаж: 5 лет 3 месяца

Сообщений: 25871

Торрент-статистика

Пост 09-Окт-2013 11:00

[Цитировать]

Кузей Гюней / Kuzey Güney (2012-2013) HDTVRip [2 сезон 1-13 серии из 40]- Год выпуска: 2012-2013
Страна: Турция
Жанр: Драма, Мелодрама
Перевод: Одноголосый закадровый, любительский
Озвучка / Автор перевода: Матвей Кенс, turok1990, shachter.
Вид субтитров: Отсутствуют

Режиссер: Мехмет А. Озтекин
Актеры: Кыванч Татлытуг, Бугра Гюльсой, Зеррин Текиндор, Ёйкю Караель, Баде Исджил, Онур Ёзтюрк, Унал Сильвер, Мустафа Авкиран, Риза Коджаоглу, Мерве Болугур, Семра Динджер
Описание фильма:
Это история о двух братьях. Они как север и юг, совсем не похожи друг на друга. Звали их также. Юг (Гюней) — был тихим и послушным. Север (Кузей) — бунтарем и драчуном. Им было нелегко понять друг друга, но они любили и были преданы друг другу. Не смотря на то, что они были такими разными, братья умудрились влюбиться в одну и ту же девушку — общую подругу детства. Ну а так как подруга эта была не такой уж простушкой, выбрала она тихого и послушного брата, который хорошо учился и подавал большие надежды. Север ничего кроме проблем не обещал. Рядом с ним вообще находиться было непросто и опасно. А потом случилась авария, братья сбили человека. За рулем был Юг, а в тюрьму пошел Север. Если бы за свое преступление ответил Гюней (юг) — возможно, даже скорее всего, все было бы по-другому. Гюней был приспособленцем, он был умен, он умел договариваться с людьми. Кузей своим упрямым характером в тюрьме нажил злейших врагов, его заставили участвовать в боях, его ранили осколком стекла, сделав на всю жизнь инвалидом. Вышел из тюрьмы абсолютно другим человеком — без чувств и эмоций. С одним желанием — подраться и поскорее покончить со своей жизнью. С ощущением абсолютной своей ненужности в этом мире. С уверенностью, что никто его не любит, ведь ни один из его родителей не остановил его, а наоборот, казалось и мать и отец были рады, что он взял вину на себя..

Дополнительная информация:

HDTVRip - shachter, Переводчики субтитров с английского: pumpus, StylishGirl, Breeeze, msv24, Shed, cba03, gaia, команда "Кузей Гюней" на сайте "VIKI". Спасибо за перевод с турецкого 74-79 серии - VusalMao. 76 серия группа "КГ" с ВИКИ. Озвучивание сериала: Матвей Кенс, turok1990, shachter.
Продолжительность: 13 x ~ 01:36:30
Качество видео: HDTVRip
Сэмпл: Скачать
Видеокодек: Xvid
Битрейт видео: ~1700 Кбит/с
Размер кадра: 720x400
Аудиокодек: MP3
Битрейт аудио: 192 Кбит/с

MediaInfo

Формат : AVI
Формат/Информация : Audio Video Interleave
Размер файла : 1,56 Гбайт
Продолжительность : 1 ч. 57 м.
Общий поток : 1909 Кбит/сек
Видео
Идентификатор : 0
Формат : MPEG-4 Visual
Профиль формата : Advanced Simple@L5
Параметр BVOP формата : 2
Параметр QPel формата : Нет
Параметр GMC формата : Без точки перехода
Параметр матрицы формата : Default (H.263)
Идентификатор кодека : XVID
Идентификатор кодека/Подсказка : XviD
Продолжительность : 1 ч. 57 м.
Битрейт : 1675 Кбит/сек
Ширина : 720 пикселей
Высота : 400 пикселей
Соотношение сторон : 16:9
Частота кадров : 25,000 кадров/сек
Цветовое пространство : YUV
Субдискретизация насыщенности : 4:2:0
Битовая глубина : 8 бит
Тип развёртки : Прогрессивная
Метод сжатия : С потерями
Бит/(Пиксели*Кадры) : 0.233
Размер потока : 1,37 Гбайт (88%)
Библиотека кодирования : XviD 64
Аудио
Идентификатор : 1
Формат : MPEG Audio
Версия формата : Version 1
Профиль формата : Layer 3
Режим : Joint stereo
Расширение режима : MS Stereo
Идентификатор кодека : 55
Идентификатор кодека/Подсказка : MP3
Продолжительность : 1 ч. 57 м.
Вид битрейта : Постоянный
Битрейт : 224 Кбит/сек
Каналы : 2 канала
Частота : 48,0 КГц
Метод сжатия : С потерями
Размер потока : 188 Мбайт (12%)
Выравнивание : Соединение по промежуткам
Продолжительность промежутка : 40 мс. (1,00 видеокадр)
Время предзагрузки промежутка : 504 мс.
Библиотека кодирования : LAME3.98r
Настройки программы : -m j -V 4 -q 3 -lowpass 19.4 -b 224

Внимание! Раздача ведётся путём добавления новых серий

Внимание! Раздача ведётся путём добавления новых серий; при каждом добавлении создаётся новый торрент.
Чтобы начать докачку новой серии, пользователям необходимо сделать следующее:
1. Остановить скачивание;
2. Удалить старый торрент у себя из клиента (старые серии удалять не надо);
3. Скачать новый торрент и запустить его у себя в клиенте вместо старого, при этом указать клиенту путь в старую папку куда и должно происходить скачивание новых серий. Ваш клиент при этом должен произвести хеширование (проверку) старой папки и будет докачивать только те серии, которых у вас ещё нет. Старые серии при этом не удаляются, а продолжают раздаваться! Eсли вы уже удалили старые серии, то предотвратить повторную закачку старых серий можно, отжав галочку в соответствующих местах при запуске нового торрента.
Скриншоты:
       
Вне форума [Профиль] [ЛС]
Показать сообщения:    
Ответить на тему

Текущее время: Сегодня 06:14

Часовой пояс: GMT + 3



Вы не можете начинать темы
Вы не можете отвечать на сообщения
Вы не можете редактировать свои сообщения
Вы не можете удалять свои сообщения
Вы не можете голосовать в опросах
Вы не можете прикреплять файлы к сообщениям
Вы не можете скачивать файлы