Сегодня идет свободное скачивание без начисления Download

Маша и Медведь: Двое на одного (Олег Кузовков) (Детский, Комедия, Семейный 2013) WEBRip (Серия 36)

Ответить на тему
 
Автор
Сообщение

Omen ®

Стаж: 4 года 10 месяцев

Сообщений: 190643

Торрент-статистика

Пост 08-Окт-2013 16:50

[Цитировать]

Маша и Медведь: Двое на одного
(Серия 36)
- Год выпуска: 2013
Жанр: Детский, Комедия, Семейный
Производство: Россия

Описание:
К Маше в гости приезжает ее сестрёнка Даша. Внешне они похожи, как две капли воды, но по характеру такие разные! Даша строгая и аккуратная. Маше не терпится поделиться радостью с Медведем, и она ведет Дашу к нему в гости — знакомиться. И вот тут начинается самое интересное...
Режиссер: Олег Кузовков, Владислав Байрамгулов
Персонажи: Алина Кукушкина, Эдуард Назаров, Борис Кутневич
Продолжительность: 00:06:49
Качество видео: WEBRip
Вид субтитров: Отсутствуют
Видеокодек: Xvid
Битрейт видео: ~1509 Kbit/s
Размер кадра: 704x400
Аудиокодек: MP3 2.0
Битрейт аудио: 192 kbit/s
Сэмпл: Ссылка

MediaInfo

Общее
Полное имя : D:\Фильмы\Masha.i.Medved.Dvje.na.odnogo.36seriya.2013.WEBRip.avi
Формат : AVI
Формат/Информация : Audio Video Interleave
Размер файла : 80,6 Мбайт
Продолжительность : 6 м. 50 с.
Общий поток : 1649 Кбит/сек
Программа кодирования : XviD4PSP 6.0 / 53.6.0
Видео
Идентификатор : 0
Формат : MPEG-4 Visual
Профиль формата : Advanced Simple@L5
Параметр BVOP формата : 1
Параметр QPel формата : Нет
Параметр GMC формата : Без точки перехода
Параметр матрицы формата : Default (H.263)
Идентификатор кодека : XVID
Идентификатор кодека/Подсказка : XviD
Продолжительность : 6 м. 50 с.
Битрейт : 1509 Кбит/сек
Ширина : 704 пикселя
Высота : 400 пикселей
Соотношение сторон : 16:9
Частота кадров : 25,000 кадров/сек
Цветовое пространство : YUV
Субдискретизация насыщенности : 4:2:0
Битовая глубина : 8 бит
Тип развёртки : Прогрессивная
Метод сжатия : С потерями
Бит/(Пиксели*Кадры) : 0.214
Размер потока : 73,8 Мбайт (91%)
Библиотека кодирования : XviD 64
Аудио
Идентификатор : 1
Формат : MPEG Audio
Версия формата : Version 1
Профиль формата : Layer 3
Режим : Joint stereo
Расширение режима : MS Stereo
Идентификатор кодека : 55
Идентификатор кодека/Подсказка : MP3
Продолжительность : 6 м. 50 с.
Вид битрейта : Постоянный
Битрейт : 128 Кбит/сек
Каналы : 2 канала
Частота : 44,1 КГц
Метод сжатия : С потерями
Размер потока : 6,26 Мбайт (8%)
Выравнивание : Соединение по промежуткам
Продолжительность промежутка : 26 мс. (0,65 видеокадр)
Скриншоты:
         
         
Вне форума [Профиль] [ЛС]
Показать сообщения:    
Ответить на тему

Текущее время: Сегодня 15:26

Часовой пояс: GMT + 3



Вы не можете начинать темы
Вы не можете отвечать на сообщения
Вы не можете редактировать свои сообщения
Вы не можете удалять свои сообщения
Вы не можете голосовать в опросах
Вы не можете прикреплять файлы к сообщениям
Вы не можете скачивать файлы