Сегодня идет свободное скачивание без начисления Download

Виолетта / Violetta (2013) SATRip (сезон 2, серии 1-4 из 80) (Обновляемая)

Ответить на тему
 
Автор
Сообщение

UndegraundMen ®

Стаж: 5 лет 4 месяца

Сообщений: 25866

Торрент-статистика

Пост 05-Окт-2013 23:52

[Цитировать]

Виолетта / Violetta (2013) SATRip (сезон 2, серии 1-4 из 80) (Обновляемая)- Год выпуска: 2013
Страна: Аргентина
Жанр: Комедия, Семейный
Перевод: Дублированный [Disney]

Режиссер: Хорхе Ниско, Мартин Саббан
Актеры: Диего Рамос, Мартина Штоссель, Диего Домингес, Хорхе Бланко, Мерседес Ламбре
Описание фильма:
Старшеклассница Виолетта, прожившая много лет в Европе, возвращается в родной Буэнос-Айрес. Никому и невдомёк, как ей одиноко! Близкие друзья остались за океаном, мамы уже много лет нет рядом, а отец постоянно пропадает на работе. Но Виолетта не падает духом. Любовь к музыке и пению помогает талантливой девушке поступить в престижную музыкальную академию «Студия 21». Перешагнув порог новой школы, Виолетта открывает для себя чарующий мир искусства, встречает новых друзей и, конечно, находит настоящую любовь.
Во 2 сезоне история Виолетты продолжается. Томас уехал, а значит, Вилу может быть только с Леоном... Но не всё так гладко, как кажется на первый взгляд. В академии появляется загадочный парень Диего, который свёл Вилу с ума своей красотой и обаянием. Да и появилась новая соперница - Лара, которая влюбилась в Леона и хочет быть с ним.
Все релизы сериала Виолетта
Продолжительность: ~00:53:00 серия
Качество видео: SATRip
Сэмпл: Скачать
Видеокодек: Xvid
Битрейт видео: ~1501kbps
Размер кадра: 640x480
Аудиокодек: MP3
Битрейт аудио: 128kbps 2ch
Пожалуйста оставайтесь на раздаче!

Внимание! Раздача ведётся путём добавления новых серий

Внимание! Раздача ведётся путём добавления новых серий; при каждом добавлении создаётся новый торрент.
Чтобы начать докачку новой серии, пользователям необходимо сделать следующее:
1. Остановить скачивание;
2. Удалить старый торрент у себя из клиента (старые серии удалять не надо);
3. Скачать новый торрент и запустить его у себя в клиенте вместо старого, при этом указать клиенту путь в старую папку куда и должно происходить скачивание новых серий. Ваш клиент при этом должен произвести хеширование (проверку) старой папки и будет докачивать только те серии, которых у вас ещё нет. Старые серии при этом не удаляются, а продолжают раздаваться! Eсли вы уже удалили старые серии, то предотвратить повторную закачку старых серий можно, отжав галочку в соответствующих местах при запуске нового торрента.

MEDIAINFO

Video
ID : 0
Format : MPEG-4 Visual
Format profile : Advanced Simple@L5
Format settings, BVOP : 2
Format settings, QPel : No
Format settings, GMC : No warppoints
Format settings, Matrix : Default (MPEG)
Codec ID : XVID
Codec ID/Hint : XviD
Duration : 53mn 48s
Bit rate : 1 501 Kbps
Width : 640 pixels
Height : 480 pixels
Display aspect ratio : 4:3
Frame rate : 25.000 fps
Color space : YUV
Chroma subsampling : 4:2:0
Bit depth : 8 bits
Scan type : Progressive
Compression mode : Lossy
Bits/(Pixel*Frame) : 0.195
Stream size : 578 MiB (92%)
Writing library : XviD 1.2.1 (UTC 2008-12-04)
Audio
ID : 1
Format : MPEG Audio
Format version : Version 1
Format profile : Layer 3
Mode : Joint stereo
Mode extension : MS Stereo
Codec ID : 55
Codec ID/Hint : MP3
Duration : 53mn 48s
Bit rate mode : Constant
Bit rate : 128 Kbps
Channel(s) : 2 channels
Sampling rate : 48.0 KHz
Compression mode : Lossy
Stream size : 49.3 MiB (8%)
Alignment : Split accross interleaves
Interleave, duration : 40 ms (1.00 video frame)
Interleave, preload duration : 500 ms
Скриншоты:

Время раздачи: 24/7
Вне форума [Профиль] [ЛС]
Показать сообщения:    
Ответить на тему

Текущее время: Сегодня 13:19

Часовой пояс: GMT + 3



Вы не можете начинать темы
Вы не можете отвечать на сообщения
Вы не можете редактировать свои сообщения
Вы не можете удалять свои сообщения
Вы не можете голосовать в опросах
Вы не можете прикреплять файлы к сообщениям
Вы не можете скачивать файлы