Сегодня идет свободное скачивание без начисления Download

Возмездие / Месть / Revenge (2013) WEB-DL 1080p [Сезон 3, серия 20 из 22] (Newstudio) [Обновляемая]

Ответить на тему
 
Автор
Сообщение

UndegraundMen ®

Стаж: 5 лет 6 месяцев

Сообщений: 25860

Торрент-статистика

Пост 05-Окт-2013 23:09

[Цитировать]

Возмездие / Месть / Revenge - Год выпуска: 2013
Жанр: Драма, Триллер, Мелодрама
Перевод: Двухголосый закадровый, профессиональный - Newstudio
Озвучка / Автор перевода: Weirdie
Релиз группа: Newstudio

Дата мировой премьеры: 29.09.2013
Дата российской премьеры: 01.10.2013
Режиссер: Кеннет Финк, Бобби Рот, Мэтт Эрл Бисли
Актеры: Эмили ВанКэмп, Робби Амелл, Макс Мартини, Стефен Эллиотт, Криста Б. Аллен, Джошуа Боуман, Кристина Чанг
Описание фильма:
Новый драматический проект от создателя Swingtown Майка Келли. Современный взгляд на «Графа де Монте Кристо». В центре повествования окажется Эмили Торн, молодая и красивая женщина которая ранее была известна под именем Аманда Кларк. Она приезжает в Хамптонс чтобы отомстить тем людям, которые разрушили ее семью. Их ждет возмездие...
Продолжительность: ~00:43:00 серия
Качество видео: WEB-DL 1080p
Сэмпл: Скачать
Видеокодек: MPEG-4 AVC/H.264
Битрейт видео: ~5224 kbps
Размер кадра: 1920х1080
Аудиокодек: AC3
Битрейт аудио:
Aудио#1: AC-3, 6ch, 384 kbps, русский
Aудио#2: АС-3, 6ch, 384 kbps, английский

Mediainfo

Общее
Уникальный идентификатор : 196539705555343922559257792382452348645 (0x93DC2BA09485150591BCE892947BB6E5)
Полное имя : F:\Екатерина\Downloads\Revenge.s03e01.WEBDL.1080p.NewStudio.TV.mkv
Формат : Matroska
Версия формата : Version 2
Размер файла : 1,84 Гбайт
Продолжительность : 43 м.
Общий поток : 6105 Кбит/сек
Дата кодирования : UTC 2013-10-01 12:13:59
Программа кодирования : mkvmerge v2.9.9 ('Tutu') built on Nov 25 2009 21:13:32
Библиотека кодирования : libebml v0.7.9 + libmatroska v0.8.1
Видео
Идентификатор : 1
Формат : AVC
Формат/Информация : Advanced Video Codec
Профиль формата : [url=mailto:High@L4.0]High@L4.0[/url]
Параметр CABAC формата : Да
Параметр ReFrames формата : 4 кадра
Идентификатор кодека : V_MPEG4/ISO/AVC
Продолжительность : 43 м.
Битрейт : 5215 Кбит/сек
Ширина : 1920 пикселей
Высота : 1080 пикселей
Соотношение сторон : 16:9
Режим частоты кадров : Постоянный
Частота кадров : 23,976 кадра/сек
Цветовое пространство : YUV
Субдискретизация насыщенности : 4:2:0
Битовая глубина : 8 бит
Тип развёртки : Прогрессивная
Бит/(Пиксели*Кадры) : 0.105
Размер потока : 1,57 Гбайт (85%)
Язык : English
Default : Нет
Forced : Нет
Основные цвета : BT.709
Характеристики трансфера : BT.709
Коэффициенты матрицы : BT.709
Аудио #1
Идентификатор : 2
Формат : AC-3
Формат/Информация : Audio Coding 3
Расширение режима : CM (complete main)
Параметр Endianness формата : Big
Идентификатор кодека : A_AC3
Продолжительность : 43 м.
Вид битрейта : Постоянный
Битрейт : 384 Кбит/сек
Каналы : 6 каналов
Расположение каналов : Front: L C R, Side: L R, LFE
Частота : 48,0 КГц
Битовая глубина : 16 бит
Метод сжатия : С потерями
Размер потока : 118 Мбайт (6%)
Язык : Russian
Default : Да
Forced : Да
Аудио #2
Идентификатор : 3
Формат : AC-3
Формат/Информация : Audio Coding 3
Расширение режима : CM (complete main)
Параметр Endianness формата : Big
Идентификатор кодека : A_AC3
Продолжительность : 43 м.
Вид битрейта : Постоянный
Битрейт : 384 Кбит/сек
Каналы : 6 каналов
Расположение каналов : Front: L C R, Side: L R, LFE
Частота : 48,0 КГц
Битовая глубина : 16 бит
Метод сжатия : С потерями
Размер потока : 118 Мбайт (6%)
Язык : English
Default : Нет
Forced : Нет

Внимание! Раздача ведётся путём добавления новых серий

Внимание! Раздача ведётся путём добавления новых серий; при каждом добавлении создаётся новый торрент.
Чтобы начать докачку новой серии, пользователям необходимо сделать следующее:
1. Остановить скачивание;
2. Удалить старый торрент у себя из клиента (старые серии удалять не надо);
3. Скачать новый торрент и запустить его у себя в клиенте вместо старого, при этом указать клиенту путь в старую папку куда и должно происходить скачивание новых серий. Ваш клиент при этом должен произвести хеширование (проверку) старой папки и будет докачивать только те серии, которых у вас ещё нет. Старые серии при этом не удаляются, а продолжают раздаваться! Eсли вы уже удалили старые серии, то предотвратить повторную закачку старых серий можно, отжав галочку в соответствующих местах при запуске нового торрента.
Скриншоты:
         
Вне форума [Профиль] [ЛС]
Показать сообщения:    
Ответить на тему

Текущее время: Сегодня 03:03

Часовой пояс: GMT + 3



Вы не можете начинать темы
Вы не можете отвечать на сообщения
Вы не можете редактировать свои сообщения
Вы не можете удалять свои сообщения
Вы не можете голосовать в опросах
Вы не можете прикреплять файлы к сообщениям
Вы не можете скачивать файлы