Сегодня идет свободное скачивание без начисления Download

За Гранью / Fringe / Сезон: 4 / Серии: 1-22 (22) (Брэд Андерсон, Джо Чаппелль) [2011, ужасы, фантастика, триллер,WEB-DLRip ] (LostFilm)

Ответить на тему
 
Автор
Сообщение

Delia ®

Пол:

Стаж: 8 лет 5 месяцев

Сообщений: 1822

Торрент-статистика

Пост 08-Окт-2011 16:07

[Цитировать]

--Грань / Fringe-- Год выпуска: 2011
Страна: США
Жанр: ужасы, фантастика, триллер
Продолжительность: ~ 40 минут
Перевод: Профессиональный (многоголосный закадровый) - LostFilm
Субтитры: Нет-Режиссёр: Брэд Андерсон, Джо Чаппелль-В ролях: Анна Торв (Оливия), Джошуа Джексон (Питер), Джон Нобл (доктор Бишоп), Ленс Реддик (агент Бройлс), Кирк Эйсвидо (агент Френсис), Блэр Браун (Нина Шарп) и др.-Описание: Столкновение миров в будущем приведёт к такой катастрофе, в которой не заинтересована ни одна сторона. Два мира наконец-то сели за стол переговоров, чтобы избежать судьбы, когда оба мира ждала мучительная смерть. Цена этому – жизнь и существование Питера. Он выполнил своё предназначение и стёрт из памяти людей. Или не до конца? Об этом нам расскажет четвёртый сезон.-Качество: HDTVRip/WEB-DLRip
Формат: AVI
Видео кодек: XviD
Аудио кодек: MP3
Видео: 720x400 (16:9), 23.976 fps, ~1600 kbps, ~0.23 bit/pixel
Аудио: 48 kHz, 2 ch, 192 kbps / LostFilm /-Релиз:
Озвучка: Студия "Kravec"
Перевод: Mauz- Сэмпл / ImDB / Кинопоиск-

Скриншоты

     

MediaInfo

Общее
Полное имя : E:\Fringe.s04e01.rus.LostFilm.TV.avi
Формат : AVI
Формат/Информация : Audio Video Interleave
Размер файла : 557 Мбайт
Продолжительность : 42 м.
Общий поток : 1814 Кбит/сек
Программа кодирования : Nandub v1.0rc2
Библиотека кодирования : Nandub build 1853/release
Видео
Идентификатор : 0
Формат : MPEG-4 Visual
Профиль формата : Simple@L3
Параметр BVOP формата : Нет
Параметр QPel формата : Нет
Параметр GMC формата : Без точки перехода
Параметр матрицы формата : Default (H.263)
Идентификатор кодека : XVID
Идентификатор кодека/Подсказка : XviD
Продолжительность : 42 м.
Битрейт : 1615 Кбит/сек
Ширина : 720 пикс.
Высота : 400 пикс.
Соотношение сторон : 16:9
Частота кадров : 23,976 кадр/сек
Цветовое пространство : YUV
Подвыборка цветности : 4:2:0
Битовая глубина : 8 бит
Тип развёртки : Прогрессивная
Метод сжатия : С потерями
Бит/(Пиксели*Кадры) : 0.234
Размер потока : 496 Мбайт (89%)
Библиотека кодирования : XviD 1.2.1 (UTC 2008-12-04)
Аудио
Идентификатор : 1
Формат : MPEG Audio
Версия формата : Version 1
Профиль формата : Layer 3
Режим : Joint stereo
Расширение режима : MS Stereo
Идентификатор кодека : 55
Идентификатор кодека/Подсказка : MP3
Продолжительность : 42 м.
Вид битрейта : Переменный
Битрейт : 192 Кбит/сек
Каналы : 2 канала
Частота : 48,0 КГц
Метод сжатия : С потерями
Размер потока : 57,2 Мбайт (10%)
Выравнивание : Соединение по промежуткам
Продолжительность промежутка : 24 мс. (0,58 видеокадр)
Время предзагрузки промежутка : 478 ms
Библиотека кодирования : LAME3.97b
Настройки программы : -m j -V 4 -q 3 -lowpass 18.6 --abr 192

Внимание! Раздача ведется путём добавления новых серий.

Внимание! Раздача ведётся путём добавления новых серий; при каждом добавлении создётся новый торрент. Чтобы начать докачку новой серии, пользователям необходимо сделать следующее:-1) остановить скачивание,
2) удалить старый торрент у себя из клиента (старые серии удалять не надо),
3) скачать новый торрент и запустить его у себя в клиенте вместо старого, при этом указать клиенту путь в старую папку куда и должно происходить скачивание новых серий.
Ваш клиент при этом должен произвести хеширование (проверку) старой папки (если не производит сам - помогите ему сделать это), и будет докачивать только те серии которых у вас ещё нет. Старые серии при этом не удаляются, а продолжают раздаваться!
Eсли вы уже удалили старые серии, то предотвратить повторную закачку старых серий можно, отжав галочку в соответсвующих местах при запуске нового торрента.
-
Добавлена 22 серия !

_________________
Человек – это канат, натянутый между животным и сверхчеловеком, – канат над пропастью.
В человеке ценно то, что он мост, а не цель. Фридрих Ницше


Последний раз редактировалось: Delia (2011-10-18 09:27), всего редактировалось 3 раз(а)
Вне форума [Профиль] [ЛС]
Показать сообщения:    
Ответить на тему

Текущее время: Сегодня 10:27

Часовой пояс: GMT + 3



Вы не можете начинать темы
Вы не можете отвечать на сообщения
Вы не можете редактировать свои сообщения
Вы не можете удалять свои сообщения
Вы не можете голосовать в опросах
Вы не можете прикреплять файлы к сообщениям
Вы не можете скачивать файлы