Сегодня идет свободное скачивание без начисления Download

Декстер / Dexter / Сезон: 6 / Серии: 1-12 (12) (John Dahl) [2011, триллер, драма, криминал, детектив, HDTVRip] (LostFilm)

Ответить на тему
 
Автор
Сообщение

Delia ®

Пол:

Стаж: 8 лет 3 месяца

Сообщений: 1822

Торрент-статистика

Пост 08-Окт-2011 15:35

[Цитировать]

--Декстер / Dexter-- Год выпуска: 2011
Страна: США
Жанр: триллер, драма, криминал, детектив
Продолжительность: ~ 42 минуты
Перевод: Профессиональный (многоголосный закадровый) - LostFilm
Субтитры: Нет-Режиссёр: John Dahl.-В ролях: Michael C. Hall, Jennifer Carpenter, Desmond Harrington, C.S. Lee, Lauren V�lez, David Zayas, James Remar и др.-Описание: Продолжение истории самого главного убийцы Америки Декстера Моргана. Он все так же умен, расчетлив и хладнокровен. Он по-прежнему придерживается своего кодекса о том, что не должны пострадать невинные люди. Однако, потенциальные жертвы Декстера также становятся все опаснее и изворотливее.-Качество: HDTVRip
Формат: AVI
Видео кодек: XviD
Аудио кодек: MP3
Видео: 720x400 (16:9), 23.976 fps, ~1800 kbps, ~0.26 bit/pixel
Аудио: 48 kHz, 2 ch, ~192 kbps /LostFilm/-
Озвучка: Студия "Кравец"-Сэмпл / ImDB / Кинопоиск-

Список серий

  • Вопросы веры (Those Kinds of Things)
  • Сказки на ночь (Once Upon a Time...)
  • Полицейский и бандит (Smokey and the Bandit)
  • Лошадь другой масти (A Horse of a Different Color)
  • Ангел смерти (The Angel of Death)
  • Выпустить тьму (Just Let Go)
  • Небраска (Nebraska)
  • Грех недеяния (Sins of Omission)
     

MediaInfo

Общее
Полное имя : D:\Dexter.s06.rus.LostFilm\Dexter.s06e01.rus.LostFilm.TV.avi
Формат : AVI
Формат/Информация : Audio Video Interleave
Размер файла : 770 Мбайт
Продолжительность : 53 м.
Общий поток : 1994 Кбит/сек
Программа кодирования : Nandub v1.0rc2
Библиотека кодирования : Nandub build 1853/release
Видео
Идентификатор : 0
Формат : MPEG-4 Visual
Профиль формата : Simple@L3
Параметр BVOP формата : Нет
Параметр QPel формата : Нет
Параметр GMC формата : Без точки перехода
Параметр матрицы формата : Default (H.263)
Идентификатор кодека : XVID
Идентификатор кодека/Подсказка : XviD
Продолжительность : 53 м.
Битрейт : 1792 Кбит/сек
Ширина : 720 пикс.
Высота : 400 пикс.
Соотношение сторон : 16:9
Частота кадров : 23,976 кадр/сек
Цветовое пространство : YUV
Подвыборка цветности : 4:2:0
Битовая глубина : 8 бит
Тип развёртки : Прогрессивная
Метод сжатия : С потерями
Бит/(Пиксели*Кадры) : 0.259
Размер потока : 692 Мбайт (90%)
Библиотека кодирования : XviD 1.2.1 (UTC 2008-12-04)
Аудио
Идентификатор : 1
Формат : MPEG Audio
Версия формата : Version 1
Профиль формата : Layer 3
Режим : Joint stereo
Расширение режима : MS Stereo
Идентификатор кодека : 55
Идентификатор кодека/Подсказка : MP3
Продолжительность : 53 м.
Вид битрейта : Переменный
Битрейт : 192 Кбит/сек
Каналы : 2 канала
Частота : 48,0 КГц
Метод сжатия : С потерями
Размер потока : 73,1 Мбайт (9%)
Выравнивание : Соединение по промежуткам
Продолжительность промежутка : 24 мс. (0,58 видеокадр)
Время предзагрузки промежутка : 466 ms
Библиотека кодирования : LAME3.97b
Настройки программы : -m j -V 4 -q 3 -lowpass 18.6 --abr 192

Внимание! Раздача ведется путём добавления новых серий.

Внимание! Раздача ведётся путём добавления новых серий; при каждом добавлении создётся новый торрент. Чтобы начать докачку новой серии, пользователям необходимо сделать следующее:-1) остановить скачивание,
2) удалить старый торрент у себя из клиента (старые серии удалять не надо),
3) скачать новый торрент и запустить его у себя в клиенте вместо старого, при этом указать клиенту путь в старую папку куда и должно происходить скачивание новых серий.
Ваш клиент при этом должен произвести хеширование (проверку) старой папки (если не производит сам - помогите ему сделать это), и будет докачивать только те серии которых у вас ещё нет. Старые серии при этом не удаляются, а продолжают раздаваться!
Eсли вы уже удалили старые серии, то предотвратить повторную закачку старых серий можно, отжав галочку в соответсвующих местах при запуске нового торрента.
Добавлена 12 серия!!!

_________________
Человек – это канат, натянутый между животным и сверхчеловеком, – канат над пропастью.
В человеке ценно то, что он мост, а не цель. Фридрих Ницше


Последний раз редактировалось: Delia (2011-11-24 07:59), всего редактировалось 4 раз(а)
Вне форума [Профиль] [ЛС]
Показать сообщения:    
Ответить на тему

Текущее время: Сегодня 15:08

Часовой пояс: GMT + 3



Вы не можете начинать темы
Вы не можете отвечать на сообщения
Вы не можете редактировать свои сообщения
Вы не можете удалять свои сообщения
Вы не можете голосовать в опросах
Вы не можете прикреплять файлы к сообщениям
Вы не можете скачивать файлы