Сегодня идет свободное скачивание без начисления Download

Мост / Broen / Bron (2013) HDTVRip (Сезон-2 / Серии 6 из 10) BaibaKo (Обновляемая)

Ответить на тему
 
Автор
Сообщение

UndegraundMen ®

Стаж: 5 лет 7 месяцев

Сообщений: 25860

Торрент-статистика

Пост 04-Окт-2013 23:59

[Цитировать]

Мост / Broen / Bron - Страна: Дания, Швеция
Год выпуска: 2013
Жанр: триллер, криминал, детектив
Перевод: Многоголосый закадровый, профессиональный - BaibaKo

Автор перевода: Прима
Озвучка: Светлана Доманова, Татьяна Оболевич, Александр Фурман и Олекса Мельник
Монтаж: Игорь Лихо
Обложка: tvblog

Режиссер: Хенрик Георгсон, Шарлотта Зилинг, Лиза Сиве
Актеры: София Хелин, Ким Бодниа, Даг Мальмберг, Рафаэль Петтерссон, Эмиль Бирк Хартманн, Аннет Линдбёк, Магнус Креппе, Сара Боберг, Ларс Симонсен, ДаниэльАдольфссон, Михаэль Моритцен и др.
Описание фильма:
Второй сезон датско-шведского сериала Мост начинается с кораблекрушения — судно без экипажа врезается в одну из опор Эресуннского моста. После событий первого сезона прошло тринадцать месяцев. Мартин Роде проходит курс реабилитации после потери сына, а Сага Норен продолжает работать в криминальном отделе. Однажды в диспетчерскую береговой охраны поступает сигнал о том, что замечено судно Faxborg, идущее курсом прямо на мост Эресунна. С корабля никто не отвечает, а команда береговой охраны, ступив на борт, выясняет, что экипаж куда-то пропал, а позже обнаруживает пятерых подростков, прикованных цепями к судну. Что скрывается за этим странным кораблем, кто приковал молодых людей? Это предстоит выяснить Саге Норен…
Продолжительность: ~ 00:57:00 серия
Качество видео: HDTVRip
Видеокодек: XviD
Формат: AVI
Битрейт видео: ~2138 kb/s
Размер кадра: 720х400 (16:9)
Аудио Rus: (MPEG Layer 3, 48,0 kHz, 2 ch, 192 kb/s) - многоголосый закадровый
Аудио Eng: (MPEG Layer 3, 48,0 kHz, 2 ch, 192 kb/s) - оригинал Сэмпл

MediaInfo:

Код:
Полное имя                               : D:\Мост (сезон 2) Broen (2013) HDTVRip - BaibaKo\Broen.s02e01.HDTVRip.XviD.Rus.Sve.BaibaKo.tv.avi
Формат                                   : AVI
Формат/Информация                        : Audio Video Interleave
Размер файла                             : 1,02 Гбайт
Продолжительность                        : 57 м.
Общий поток                              : 2536 Кбит/сек
Программа кодирования                    : VirtualDubMod 1.5.10.2 (build 2542/release)
Библиотека кодирования                   : VirtualDubMod build 2542/release
Видео
Идентификатор                            : 0
Формат                                   : MPEG-4 Visual
Профиль формата                          : Advanced Simple@L5
Параметр BVOP формата                    : 2
Параметр QPel формата                    : Нет
Параметр GMC формата                     : Без точки перехода
Параметр матрицы формата                 : Default (H.263)
Идентификатор кодека                     : XVID
Идентификатор кодека/Подсказка           : XviD
Продолжительность                        : 57 м.
Битрейт                                  : 2138 Кбит/сек
Ширина                                   : 720 пикселей
Высота                                   : 400 пикселей
Соотношение сторон                       : 16:9
Частота кадров                           : 25,000 кадров/сек
Цветовое пространство                    : YUV
Субдискретизация насыщенности            : 4:2:0
Битовая глубина                          : 8 бит
Тип развёртки                            : Прогрессивная
Метод сжатия                             : С потерями
Бит/(Пиксели*Кадры)                      : 0.297
Размер потока                            : 879 Мбайт (84%)
Библиотека кодирования                   : XviD 1.2.1 (UTC 2008-12-04)
Аудио #1
Идентификатор                            : 1
Формат                                   : MPEG Audio
Версия формата                           : Version 1
Профиль формата                          : Layer 3
Режим                                    : Joint stereo
Расширение режима                        : MS Stereo
Идентификатор кодека                     : 55
Идентификатор кодека/Подсказка           : MP3
Продолжительность                        : 57 м.
Вид битрейта                             : Постоянный
Битрейт                                  : 192 Кбит/сек
Каналы                                   : 2 канала
Частота                                  : 48,0 КГц
Метод сжатия                             : С потерями
Размер потока                            : 79,0 Мбайт (8%)
Выравнивание                             : Соединение по промежуткам
Продолжительность промежутка             : 40  мс. (1,00 видеокадр)
Время предзагрузки промежутка            : 504  мс.
Библиотека кодирования                   : LAME3.99r
Настройки программы                      : -m j -V 4 -q 2 -lowpass 18.6 -b 192
Аудио #2
Идентификатор                            : 2
Формат                                   : MPEG Audio
Версия формата                           : Version 1
Профиль формата                          : Layer 3
Режим                                    : Joint stereo
Идентификатор кодека                     : 55
Идентификатор кодека/Подсказка           : MP3
Продолжительность                        : 57 м.
Вид битрейта                             : Постоянный
Битрейт                                  : 192 Кбит/сек
Каналы                                   : 2 канала
Частота                                  : 48,0 КГц
Метод сжатия                             : С потерями
Размер потока                            : 79,0 Мбайт (8%)
Выравнивание                             : Соединение по промежуткам
Продолжительность промежутка             : 40  мс. (1,00 видеокадр)
Время предзагрузки промежутка            : 504  мс.
Библиотека кодирования                   : LAME3.99r
Настройки программы                      : -m j -V 4 -q 2 -lowpass 18.6 -b 192
707068

Раздача ведётся путём добавления новых серий

Раздача ведётся путём добавления новых серий; при каждом добавлении создаётся новый торрент. Чтобы начать докачку новой серии, пользователям необходимо сделать следующее:
(1) остановить скачивание,
(2) удалить старый торрент у себя из клиента (старые серии удалять не надо),
(3) скачать новый торрент и запустить его у себя в клиенте вместо старого, при этом указать клиенту путь в старую папку куда и должно происходить скачивание новых серий.
Ваш клиент при этом должен произвести хеширование (проверку) старой папки (если не производит сам - помогите ему сделать это), и будет докачивать только те серии которых у вас ещё нет. Старые серии при этом не удаляются, а продолжают раздаваться!
Eсли вы уже удалили старые серии, то предотвратить повторную закачку старых серий можно, отжав галочку в соответствующих местах при запуске нового торрента. По возможности, желательно не удалять старые серии как можно дольше чтобы релизёр не столько продолжал раздавать старые серии, а смог сконцентрироваться на новых.
Скриншоты:
         
Вне форума [Профиль] [ЛС]
Показать сообщения:    
Ответить на тему

Текущее время: Сегодня 05:13

Часовой пояс: GMT + 3



Вы не можете начинать темы
Вы не можете отвечать на сообщения
Вы не можете редактировать свои сообщения
Вы не можете удалять свои сообщения
Вы не можете голосовать в опросах
Вы не можете прикреплять файлы к сообщениям
Вы не можете скачивать файлы