Сегодня идет свободное скачивание без начисления Download

Симпсоны / The Simpsons / Сезон: 15 / Серии: 1 - 22 из 22 (Мэтт Гроунинг / Matt Groening) [2003, мультсериал, HDRip] MVO (2х2)

Ответить на тему
 
Автор
Сообщение

Omen ®

Стаж: 5 лет

Сообщений: 190529

Торрент-статистика

Пост 04-Окт-2013 21:40

[Цитировать]

Симпсоны / The Simpsons
Страна: США
Жанр: мультсериал
Продолжительность: 22~00:22:00
Год выпуска: 2003
Перевод: Профессиональный (многоголосый закадровый), (2х2)
Русские субтитры: нет
Режиссёр: Мэтт Гроунинг / Matt Groening
Роли озвучивали: Дэн Кастелланета, Джули Кавнер, Нэнси Картрайт, Ярдли Смит, Хэнк Азария
Описание: Мультфильм — пародия на американский уклад жизни. Cемейство Симпсонов состоит из пяти членов: папаша Гомер, мать семейства Мардж, их дочери Лиза и Мэгги и несносный подросток Барт.
Список серий:
01. Treehouse of Horror XIV
02. My Mother the Carjacke
03. The President Wore Pearls
04. The Regina Monologues
05. The Fat and the Furriest
06. Today I am A Clown
07. ’Tis The Fifteenth Season
08. Marge vs. Singles, Seniors, Childless Couples and Teens, and Gays
09. I, (Annoyed Grunt)-Bot
10. Diatribe of a Mad Housewife
11. Margical History Tour
12. Milhouse Doesn’t Live Here Anymore
13. Smart and Smarter
14. The Ziff Who Came to Dinner
15. Co-Dependent’s Day
16. The Wandering Juvie
17. My Big Fat Geek Wedding
18. Catch ’em If You Can
19. Simple Simpson
20. The Way We Weren’t
21. Bart-Mangled Banner
22. Fraudcast News
Качество: HDRip
Формат: AVI
Видео: XviD, 1200 Кбит/с, 720х544, 23.976 fps
Аудио: Русский AC3, 48 kHz, 2.0 ch, ~192.00 kbps
Аудио 2: Английский AC3, 48.0 kHz, 5.1 ch, ~ 384 kbps
Субтитры: нет

Подробные технические данные

\Simpsony.15.sezon\S15E01.Treehouse of Horror XIV.aviFormat : AVIFormat/Info : Audio Video InterleaveFile size : 286 MiBDuration : 22mn 1sOverall bit rate : 1 814 KbpsWriting application : XviD4PSP 6.0 / 54.29.105
VideoID : 0Format : MPEG-4 VisualFormat profile : Advanced Simple@L5Format settings, BVOP : 3Format settings, QPel : NoFormat settings, GMC : No warppointsFormat settings, Matrix : Default (H.263)Codec ID : XVIDCodec ID/Hint : XviDDuration : 22mn 1sBit rate : 1 221 KbpsWidth : 720 pixelsHeight : 544 pixelsDisplay aspect ratio : 4:3Frame rate : 23.976 fpsColor space : YUVChroma subsampling : 4:2:0Bit depth : 8 bitsScan type : ProgressiveCompression mode : LossyBits/(Pixel*Frame) : 0.130Stream size : 192 MiB (67%)Writing library : XviD 1.2.1 (UTC 2008-12-04)
Audio #1ID : 1Format : AC-3Format/Info : Audio Coding 3Mode extension : CM (complete main)Format settings, Endianness : BigCodec ID : 2000Duration : 22mn 1sBit rate mode : ConstantBit rate : 192 KbpsChannel(s) : 2 channelsChannel positions : Front: L RSampling rate : 48.0 KHzBit depth : 16 bitsCompression mode : LossyStream size : 30.2 MiB (11%)Alignment : Aligned on interleavesInterleave, duration : 32 ms (0.77 video frame)
Audio #2ID : 2Format : AC-3Format/Info : Audio Coding 3Mode extension : CM (complete main)Format settings, Endianness : BigCodec ID : 2000Duration : 22mn 1sBit rate mode : ConstantBit rate : 384 KbpsChannel(s) : 6 channelsChannel positions : Front: L C R, Side: L R, LFESampling rate : 48.0 KHzBit depth : 16 bitsCompression mode : LossyStream size : 60.5 MiB (21%)Alignment : Aligned on interleavesInterleave, duration : 32 ms (0.77 video frame)Title : ENG

Скриншоты

Вне форума [Профиль] [ЛС]
Показать сообщения:    
Ответить на тему

Текущее время: Сегодня 10:35

Часовой пояс: GMT + 3



Вы не можете начинать темы
Вы не можете отвечать на сообщения
Вы не можете редактировать свои сообщения
Вы не можете удалять свои сообщения
Вы не можете голосовать в опросах
Вы не можете прикреплять файлы к сообщениям
Вы не можете скачивать файлы